Вы используете незарегистрированную версию компонента "Вкладки"!

Поиск

(Free Jazz, Free Improvisation) Marilyn Crispell Quartet & Quintet (Fredrik Ljungkvist, Lars Goran Ulander, Magnus Broo, Per Zanussi, Palle Danielsson, Paal Nilssen-Love) - Collaborations - 2009, FLAC (tracks+.cue) lossless

Треклист:
Marilyn Crispell Quartet & Quintet / Collaborations
Жанр: Free Jazz, Free Improvisation
Страна-производитель диска: Великобритания
Год издания диска: 2009
Издатель (лейбл): Leo Records
Номер по каталогу: CD LR 528
Страна: США, Швеция, Норвегия
Аудио кодек: FLAC (*.flac)
Тип рипа: tracks+.cue
Битрейт аудио: lossless
Продолжительность: 1:14:09
Источник (релизер): другой трекер (iwals)
Наличие сканов в содержимом раздачи: да
Треклист:
1. Quartet Collaboration
2. Aros
3. Quintet Collaboration, Pt. 1
4. Quintet Collaboration, Pt. 2
5. Silence Again
recorded live at the Nya Perspektiv Festivals, Sweden, in 2004 & 2007
 
Лог создания рипа
Exact Audio Copy V0.99 prebeta 4 from 23. January 2008
EAC extraction logfile from 8. March 2009, 15:01
Marilyn Crispell Quartet & Quintet / Collaborations
Used drive : HL-DT-STBDDVDRW GGC-H20L Adapter: 1 ID: 0
Read mode : Secure
Utilize accurate stream : Yes
Defeat audio cache : Yes
Make use of C2 pointers : No
Read offset correction : 667
Overread into Lead-In and Lead-Out : No
Fill up missing offset samples with silence : Yes
Delete leading and trailing silent blocks : No
Null samples used in CRC calculations : Yes
Used interface : Native Win32 interface for Win NT & 2000
Gap handling : Appended to previous track
Used output format : User Defined Encoder
Selected bitrate : 128 kBit/s
Quality : High
Add ID3 tag : No
Command line compressor : C:\Program Files (x86)\FLAC\flac.exe
Additional command line options : -V -8 -T "artist=%a" -T "title=%t" -T "album=%g" -T "date=%y" -T "tracknumber=%n" -T "genre=%m" %s
TOC of the extracted CD
Track | Start | Length | Start sector | End sector
---------------------------------------------------------
1 | 0:00.00 | 15:12.56 | 0 | 68455
2 | 15:12.56 | 22:41.18 | 68456 | 170548
3 | 37:53.74 | 11:52.34 | 170549 | 223982
4 | 49:46.33 | 14:06.57 | 223983 | 287489
5 | 63:53.15 | 10:15.26 | 287490 | 333640
Track 1
Filename E:\New Rip\Marilyn Crispell Quartet & Quinte - Collaborations, Live at Nya Perspektiv Festivals 2004 and 2007\01 - Quartet Collaboration.wav
Pre-gap length 0:00:02.00
Peak level 100.0 %
Track quality 100.0 %
Test CRC 1A52BF2D
Copy CRC 1A52BF2D
Copy OK
Track 2
Filename E:\New Rip\Marilyn Crispell Quartet & Quinte - Collaborations, Live at Nya Perspektiv Festivals 2004 and 2007\02 - Aros.wav
Peak level 100.0 %
Track quality 100.0 %
Test CRC AF9E476B
Copy CRC AF9E476B
Copy OK
Track 3
Filename E:\New Rip\Marilyn Crispell Quartet & Quinte - Collaborations, Live at Nya Perspektiv Festivals 2004 and 2007\03 - Quintet Collaboration 1.wav
Peak level 88.4 %
Track quality 100.0 %
Test CRC A33387BA
Copy CRC A33387BA
Copy OK
Track 4
Filename E:\New Rip\Marilyn Crispell Quartet & Quinte - Collaborations, Live at Nya Perspektiv Festivals 2004 and 2007\04 - Quintet Collaboration 2.wav
Peak level 98.1 %
Track quality 99.9 %
Test CRC 38E8FD38
Copy CRC 38E8FD38
Copy OK
Track 5
Filename E:\New Rip\Marilyn Crispell Quartet & Quinte - Collaborations, Live at Nya Perspektiv Festivals 2004 and 2007\05 - Silence Again.wav
Peak level 28.3 %
Track quality 99.9 %
Test CRC 9D3BC47F
Copy CRC 9D3BC47F
Copy OK
No errors occurred
End of status report
 
Содержание индексной карты (.CUE)
REM GENRE Jazz
REM DATE 2009
REM DISCID 4E116005
REM COMMENT "ExactAudioCopy v0.99pb4"
PERFORMER "Marilyn Crispell Quartet & Quintet"
TITLE "Collaborations"
FILE "01 - Quartet Collaboration.wav" WAVE
TRACK 01 AUDIO
TITLE "Quartet Collaboration"
PERFORMER "Marilyn Crispell Quartet & Quintet"
INDEX 01 00:00:00
FILE "02 - Aros.wav" WAVE
TRACK 02 AUDIO
TITLE "Aros"
PERFORMER "Marilyn Crispell Quartet & Quintet"
INDEX 01 00:00:00
FILE "03 - Quintet Collaboration 1.wav" WAVE
TRACK 03 AUDIO
TITLE "Quintet Collaboration 1"
PERFORMER "Marilyn Crispell Quartet & Quintet"
INDEX 01 00:00:00
FILE "04 - Quintet Collaboration 2.wav" WAVE
TRACK 04 AUDIO
TITLE "Quintet Collaboration 2"
PERFORMER "Marilyn Crispell Quartet & Quintet"
INDEX 01 00:00:00
FILE "05 - Silence Again.wav" WAVE
TRACK 05 AUDIO
TITLE "Silence Again"
PERFORMER "Marilyn Crispell Quartet & Quintet"
INDEX 01 00:00:00
 
Лог проверки качества
AUDIOCHECKER v2.0 beta (build 457) - by Dester - opdester@freemail.hu
~~~~~~~~~~~~~~~~~~~~~~~~~~~~~~~~~~
-=== DO NOT EDIT THIS FILE! ===-
Path: ...\Marilyn Crispell Quartet & Quintet - Collaborations (2009) [FLAC]
1 -=- 01 - Quartet Collaboration.flac -=- CDDA (100%)
2 -=- 02 - Aros.flac -=- CDDA (100%)
3 -=- 03 - Quintet Collaboration 1.flac -=- CDDA (100%)
4 -=- 04 - Quintet Collaboration 2.flac -=- CDDA (100%)
5 -=- 05 - Silence Again.flac -=- CDDA (99%)
Summary 99,80% CDDA
163153972
 
Состав

Fredrik Ljungkvist clarinet, saxophone
Lars Goran Ulander alto saxophone
Magnus Broo trumpet
Marilyn Crispell piano
Per Zanussi, Palle Danielsson upright bass
Paal Nilssen-Love drums
Any questions -> support@pro-jazz.com. По всем вопросам пишите -> support@pro-jazz.com
11:22
153
Нет комментариев. Ваш будет первым!