Вы используете незарегистрированную версию компонента "Вкладки"!

Поиск

(Free Jazz, Free Improvisation) 'Kidd' Jordan, Joel Futterman, Alvin Fielder Trio - Live at the Tampere Jazz Happening 2000 - 2004, FLAC (image+.cue), lossless

(Free Jazz, Free Improvisation) 'Kidd' Jordan, Joel Futterman, Alvin Fielder Trio - Live at the Tampere Jazz Happening 2000 - 2004, FLAC (image+.cue), lossless
Треклист:
'Kidd' Jordan, Joel Futterman, Alvin Fielder Trio / Live at the Tampere Jazz Happening 2000
Жанр: Free Jazz, Free Improvisation
Страна-производитель диска: US
Год издания: 2004
Издатель (лейбл): Charles Lester Music
Номер по каталогу: CLM 26-006
Аудиокодек: FLAC (*.flac)
Тип рипа: image+.cue
Битрейт аудио: lossless
Продолжительность: 69:01
Источник (релизер): cd
Наличие сканов в содержимом раздачи: нет
Треклист:
1.Track 1. Introduction
2.Track 2. Performance
3.Track 3
4.Track 4
5.Track 5
6.Track 6
7.Track 7. Encore
 
Лог создания рипа
Exact Audio Copy V1.0 beta 2 from 29. April 2011
EAC extraction logfile from 26. November 2012, 9:56
Kidd Jordan Trio / Live at the Tampere
Used drive : Optiarc DVD RW AD-7170A Adapter: 0 ID: 0
Read mode : Secure
Utilize accurate stream : Yes
Defeat audio cache : Yes
Make use of C2 pointers : No
Read offset correction : 48
Overread into Lead-In and Lead-Out : No
Fill up missing offset samples with silence : Yes
Delete leading and trailing silent blocks : No
Null samples used in CRC calculations : Yes
Used interface : Native Win32 interface for Win NT & 2000
Used output format : User Defined Encoder
Selected bitrate : 320 kBit/s
Quality : High
Add ID3 tag : No
Command line compressor : C:\Program Files\Exact Audio Copy\Flac\flac.exe
Additional command line options : -V -8 -T "Date=%year%" -T "Genre=%genre%" %source%
TOC of the extracted CD
Track | Start | Length | Start sector | End sector
---------------------------------------------------------
1 | 0:00.00 | 0:55.62 | 0 | 4186
2 | 0:55.62 | 18:21.55 | 4187 | 86816
3 | 19:17.42 | 13:10.16 | 86817 | 146082
4 | 32:27.58 | 5:36.48 | 146083 | 171330
5 | 38:04.31 | 10:43.73 | 171331 | 219628
6 | 48:48.29 | 10:10.74 | 219629 | 265452
7 | 58:59.28 | 10:01.51 | 265453 | 310578
Range status and errors
Selected range
Filename K:\ЕАС\Kidd Jordan Trio - Live at the Tampere.wav
Peak level 98.8 %
Extraction speed 2.1 X
Range quality 99.9 %
Test CRC 3C1A9634
Copy CRC 3C1A9634
Copy OK
No errors occurred
AccurateRip summary
Track 1 accurately ripped (confidence 2) [4A3029F3] (AR v1)
Track 2 accurately ripped (confidence 2) [C4839610] (AR v1)
Track 3 accurately ripped (confidence 2) [5367451C] (AR v1)
Track 4 accurately ripped (confidence 2) [1520D6A1] (AR v1)
Track 5 accurately ripped (confidence 2) [BD529BA3] (AR v1)
Track 6 accurately ripped (confidence 2) [355AD5CE] (AR v1)
Track 7 accurately ripped (confidence 2) [EC28B15E] (AR v1)
All tracks accurately ripped
End of status report
==== Log checksum A439EA585E713B185E4F8EA651EADE4E25BF4C6F34BB70D144D9A73C4A0F8131 ====
 
Содержание индексной карты (.CUE)
REM GENRE Jazz
REM DATE 2004
REM DISCID 62102D07
REM COMMENT "ExactAudioCopy v1.0b2"
CATALOG 0801821902623
PERFORMER "Kidd Jordan Trio"
TITLE "Live at the Tampere"
FILE "Kidd Jordan Trio - Live at the Tampere.flac" WAVE
TRACK 01 AUDIO
TITLE "Track 1. Introduction"
PERFORMER "Kidd Jordan Trio"
ISRC 000000000000
FLAGS DCP
INDEX 01 00:00:00
TRACK 02 AUDIO
TITLE "Track 2. Performance"
PERFORMER "Kidd Jordan Trio"
ISRC 000000000000
FLAGS DCP
INDEX 01 00:55:62
TRACK 03 AUDIO
TITLE "Track 3"
PERFORMER "Kidd Jordan Trio"
ISRC 000000000000
FLAGS DCP
INDEX 01 19:17:42
TRACK 04 AUDIO
TITLE "Track 4"
PERFORMER "Kidd Jordan Trio"
ISRC 000000000000
FLAGS DCP
INDEX 01 32:27:58
TRACK 05 AUDIO
TITLE "Track 5"
PERFORMER "Kidd Jordan Trio"
ISRC 000000000000
FLAGS DCP
INDEX 01 38:04:31
TRACK 06 AUDIO
TITLE "Track 6"
PERFORMER "Kidd Jordan Trio"
ISRC 000000000000
FLAGS DCP
INDEX 01 48:48:29
TRACK 07 AUDIO
TITLE "Track 7. Encore"
PERFORMER "Kidd Jordan Trio"
ISRC 000000000000
FLAGS DCP
INDEX 01 58:59:28
 
Об альбоме (сборнике)
It is rare, especially in the world of free jazz, for players to perform together continuously, in part due to the perceived need to search for new sources of creativity. While each of the members of this collective performs in other groups, they continue to return to this core trio, presumably because the wells of inspiration never seem to dry up. These freely improvised tracks were recorded at the Tampere Jazz Happening 2000, an international creative music festival held during the darkest days of Finland's notorious fall season. Those familiar with the group's previous work should not be surprised by the level of intensity nor the virtuosic displays. Those coming to the group for the first time might be shell-shocked by its more than occasional ferociousness, particularly from the piano and saxophone. Joel Futterman's debt to Cecil Taylor hardly needs to be reiterated, but he also blows a soprano sax (usually curved) and an Indian wooden flute, each of which he has become more comfortable over time. The trio retains its essential core, with Futterman flying through the keyboards with unmitigated speed, like a sprinter running his last race; Kidd Jordan plowing through clipped phrases with unrelenting zeal; and Alvin Fiedler alternately keeping things moving or holding them in stride, or both. It is a good group because the players are top-notch technically, they know the others' moods, probably what they each had for breakfast, and they are able to build on common ground rather than stagnate in quotidian familiarity. Yes, you might have heard these fellows before, but every chance to hear this dynamic trio live is a big treat. In this concert setting they have time to stretch, and the audience clearly appreciates and inspires them.
 
Состав
Drums, Percussion – Alvin Fielder
Piano, Soprano Saxophone, Flute [Indian] – Joel Futterman
Tenor Saxophone – Edward 'Kidd' Jordan
Any questions -> support@pro-jazz.com. По всем вопросам пишите -> support@pro-jazz.com
05:48
150
Нет комментариев. Ваш будет первым!