Вы используете незарегистрированную версию компонента "Вкладки"!

Поиск

(Free Jazz, Free Improvisation) Ken Vandermark & Paal Nilssen-Love - Seven {Smalltown Superjazzz STSJ119CD, Norway} - 2006, FLAC (tracks+.cue) lossless

Треклист:
Ken Vandermark & Paal Nilssen-Love - Seven
Жанр: Free Jazz, Free Improvisation
Страна-производитель диска: Norway
Год издания диска: 2006
Издатель (лейбл): Smalltown Superjazzz
Номер по каталогу: STSJ119CD
Аудио кодек: FLAC (*.flac)
Тип рипа: tracks+.cue
Битрейт аудио: lossless
Продолжительность: 00:44:00
Источник (релизер): mishka1981
Наличие сканов в содержимом раздачи: да
Треклист:
1. First Hit, Second Fall 26:36
2. Open Too Close 14:04
3. Universal Funeral 3:20
Recorded live at Blå in Oslo on April the 1st, mixed on December the 13th 2005 by Thomas Hukkelberg at desibel.no
Live sound by Stig Gunnar Ringen
This recording is dedicated to Bjørnar Andresen
Personnel:
Ken Vandermark - Tenor and baritone saxophone, Bb clarinet
Paal Nilssen-Love - Drums and percussion
 
Лог создания рипа (EAC Log)
Exact Audio Copy V1.0 beta 1 from 15. November 2010
EAC extraction logfile from 1. November 2011, 16:04
Ken Vandermark & Paal Nilssen-Love / Seven
Used drive : TSSTcorpCDDVDW TS-L633A Adapter: 3 ID: 0
Read mode : Secure
Utilize accurate stream : Yes
Defeat audio cache : Yes
Make use of C2 pointers : No
Read offset correction : 6
Overread into Lead-In and Lead-Out : No
Fill up missing offset samples with silence : Yes
Delete leading and trailing silent blocks : No
Null samples used in CRC calculations : Yes
Used interface : Installed external ASPI interface
Gap handling : Appended to previous track
Used output format : User Defined Encoder
Selected bitrate : 896 kBit/s
Quality : High
Add ID3 tag : No
Command line compressor : C:\Program Files\Exact Audio Copy\FLAC\FLAC.EXE
Additional command line options : -8 -V -T "ARTIST=%a" -T "TITLE=%t" -T "ALBUM=%g" -T "DATE=%y" -T "TRACKNUMBER=%n" -T "TOTALTRACKS=%x" -T "GENRE=%m" -T "ALBUMARTIST=%v" -T "ALBUM ARTIST=%v" -T "COMMENT=EAC Secure Mode, Test & Copy, AccurateRip, FLAC -8" %s
TOC of the extracted CD
Track | Start | Length | Start sector | End sector
---------------------------------------------------------
1 | 0:00.00 | 26:36.51 | 0 | 119750
2 | 26:36.51 | 14:03.46 | 119751 | 183021
3 | 40:40.22 | 3:19.54 | 183022 | 198000
Track 1
Filename C:\MY RIPS\01 - First Hit, Second Fall.wav
Pre-gap length 0:00:02.00
Peak level 98.8 %
Extraction speed 1.5 X
Track quality 100.0 %
Test CRC 524565E2
Copy CRC 524565E2
Accurately ripped (confidence 1) [241E5678]
Copy OK
Track 2
Filename C:\MY RIPS\02 - Open Too Close.wav
Peak level 98.8 %
Extraction speed 2.0 X
Track quality 100.0 %
Test CRC 32C97DDD
Copy CRC 32C97DDD
Accurately ripped (confidence 1) [D75FA0AC]
Copy OK
Track 3
Filename C:\MY RIPS\03 - Universal Funeral.wav
Peak level 98.8 %
Extraction speed 1.8 X
Track quality 100.0 %
Test CRC 5D3CF9F4
Copy CRC 5D3CF9F4
Accurately ripped (confidence 1) [077114FF]
Copy OK
All tracks accurately ripped
No errors occurred
End of status report
==== Log checksum 81E601F1536F58E0D40850B43453255A748661E67E4E12139B5C9575B0DA22C9 ====
 
Содержание индексной карты (.CUE)
REM GENRE Alternative
REM DATE 2006
REM DISCID 250A5003
REM COMMENT "ExactAudioCopy v1.0b1"
PERFORMER "Ken Vandermark & Paal Nilssen-Love"
TITLE "Seven"
FILE "01 - First Hit, Second Fall.wav" WAVE
TRACK 01 AUDIO
TITLE "First Hit, Second Fall"
PERFORMER "Ken Vandermark & Paal Nilssen-Love"
INDEX 01 00:00:00
FILE "02 - Open Too Close.wav" WAVE
TRACK 02 AUDIO
TITLE "Open Too Close"
PERFORMER "Ken Vandermark & Paal Nilssen-Love"
INDEX 01 00:00:00
FILE "03 - Universal Funeral.wav" WAVE
TRACK 03 AUDIO
TITLE "Universal Funeral"
PERFORMER "Ken Vandermark & Paal Nilssen-Love"
INDEX 01 00:00:00
 
AAJ Review
Seven is the third recorded collaboration between Vandermark and Nilssen-Love, following Dual Pleasure (2002) and Dual Pleasure 2 (2004), both on Smalltown Supersound. It's the most concise to date in the series, running to only three tracks and 44 minutes playing time. The album was recorded live at the duo's home base, the Blå club in Oslo, on April 1, 2005. As is to be hoped with such excellent players, the session finds both in top form, with a constant sense of urgency, passion and adventure, and with plenty to say. The opening track, “First Hit, Second Fall” (26 minutes long), alternates between condensed, fiery interplay and more abstract passages where the duo investigate the myriads of tones and timbres of instruments. Nilssen-Love enjoys twisting time patterns, and he manages to push Vandermark into stratospheric flights even when he's only playing his cymbals. Vandermark erupts with ideas and his charged playing keeps the music fresh and surprising.
The fourteen-minute piece “Open Too Close” is a muscular, sometimes even brutal tour-de-force in the great tradition of saxophone/drums duos created by John Coltrane and Rashied Ali. Experiencing such boundless energy can leave the listener breathless (but satisfied). Vandermark usually finishes his concerts with a short piece on his clarinet, and this album's closing track, “Universal Funeral,” is one of those—but Nilssen-Love decorates the mournful theme with metallic background noises that deny any possibility of accepting the piece as a simple elegy.
Seven is dedicated to the late Norwegian bass player Bjørnar Andresen, one of the icons of the Norwegian jazz community, who passed away three weeks after the Crimetime Orchestra's last recording session. Vandermark and Nilssen-Love prove yet again that they can create a very expressive painting, full of different colors and textures, and one that is fresh and relevant.
-- Eyal Hareuveni, May 2006, AllAboutJazz.com
Any questions -> support@pro-jazz.com. По всем вопросам пишите -> support@pro-jazz.com
18:05
164
Нет комментариев. Ваш будет первым!