Вы используете незарегистрированную версию компонента "Вкладки"!

Поиск

(Free Jazz, Free Improvisation) 阿部薫 (Kaoru Abe) - Winter 1972 - 2004, FLAC (tracks+.cue), lossless

(Free Jazz, Free Improvisation) 阿部薫 (Kaoru Abe) - Winter 1972 - 2004, FLAC (tracks+.cue), lossless
Треклист:
阿部薫 / Winter 1972
Жанр: Free Jazz, Free Improvisation
Страна-производитель диска: Япония
Год издания диска: 2004
Издатель (лейбл): P.S.F. Records
Номер по каталогу: PSFD-158
Страна: Япония
Аудиокодек: FLAC (*.flac)
Тип рипа: tracks+.cue
Битрейт аудио: lossless
Продолжительность: 46:40
Источник (релизер): вот.сиди (dashdash1)
Наличие сканов в содержимом раздачи: да
Треклист:
1 No.1 24:17
2 No.2 4:27
3 No.3 17:54

Recorded live on December 16, 1972 at 魔夢吐狒狒 in Osaka.
 
Лог создания рипа
Exact Audio Copy V1.0 beta 2 from 29. April 2011
EAC extraction logfile from 23. September 2011, 16:42
Kaoru Abe / Winter 1972
Used drive : TSSTcorpCDDVDW TS-L633C Adapter: 0 ID: 1
Read mode : Secure
Utilize accurate stream : Yes
Defeat audio cache : Yes
Make use of C2 pointers : No
Read offset correction : 6
Overread into Lead-In and Lead-Out : No
Fill up missing offset samples with silence : Yes
Delete leading and trailing silent blocks : No
Null samples used in CRC calculations : Yes
Used interface : Native Win32 interface for Win NT & 2000
Gap handling : Appended to previous track
Used output format : User Defined Encoder
Selected bitrate : 128 kBit/s
Quality : High
Add ID3 tag : No
Command line compressor : C:\Program Files (x86)\Exact Audio Copy\Flac\flac.exe
Additional command line options : -8 -V -T "ARTIST=%artist%" -T "TITLE=%title%" -T "ALBUM=%albumtitle%" -T "DATE=%year%" -T "TRACKNUMBER=%tracknr%" -T "GENRE=%genre%" -T "PERFORMER=%albuminterpret%" -T "COMPOSER=%composer%" %haslyrics%--tag-from-file=LYRICS
TOC of the extracted CD
Track | Start | Length | Start sector | End sector
---------------------------------------------------------
1 | 0:00.00 | 24:17.24 | 0 | 109298
2 | 24:17.24 | 4:27.33 | 109299 | 129356
3 | 28:44.57 | 17:54.68 | 129357 | 209974
Track 1
Filename C:\EAC rips\01 - No.1.wav
Pre-gap length 0:00:02.00
Peak level 100.0 %
Extraction speed 1.5 X
Track quality 100.0 %
Test CRC E648B81A
Copy CRC E648B81A
Cannot be verified as accurate (confidence 4) [39CA0879], AccurateRip returned [B4E22216] (AR v2)
Copy OK
Track 2
Filename C:\EAC rips\02 - No.2.wav
Pre-gap length 0:00:05.00
Peak level 100.0 %
Extraction speed 1.7 X
Track quality 100.0 %
Test CRC 6D1BE899
Copy CRC 6D1BE899
Cannot be verified as accurate (confidence 4) [76405D61], AccurateRip returned [229FFF04] (AR v2)
Copy OK
Track 3
Filename C:\EAC rips\03 - No.3.wav
Pre-gap length 0:00:05.00
Peak level 100.0 %
Extraction speed 2.2 X
Track quality 100.0 %
Test CRC ADFD197C
Copy CRC ADFD197C
Cannot be verified as accurate (confidence 4) [D1C5C693], AccurateRip returned [05593102] (AR v2)
Copy OK
No tracks could be verified as accurate
You may have a different pressing from the one(s) in the database
No errors occurred
End of status report
==== Log checksum 23DB8BB5C3C3C3F58AF46C8C2D2E412E6C146A32E77F6CCD8487E44C6AFD5393 ====
 
Содержание индексной карты (.CUE)
REM GENRE "Free Jazz; Free Improvisation"
REM DATE 2004
REM DISCID 250AEF03
REM COMMENT "ExactAudioCopy v1.0b2"
FILE "01 - No.1.wav" WAVE
TRACK 01 AUDIO
INDEX 01 00:00:00
TRACK 02 AUDIO
INDEX 00 24:12:24
FILE "02 - No.2.wav" WAVE
INDEX 01 00:00:00
TRACK 03 AUDIO
INDEX 00 04:22:33
FILE "03 - No.3.wav" WAVE
INDEX 01 00:00:00
 
Лог проверки качества
AUDIOCHECKER v2.0 beta (build 457) - by Dester - opdester@freemail.hu
~~~~~~~~~~~~~~~~~~~~~~~~~~~~~~~~~~
-=== DO NOT EDIT THIS FILE! ===-
Path: ...\Kaoru Abe - Winter 1972 (2004) [FLAC] {PSFD-158}
1 -=- 01 - No.1.flac -=- MPEG (99%)
2 -=- 02 - No.2.flac -=- MPEG (100%)
3 -=- 03 - No.3.flac -=- MPEG (100%)
Summary 0,33% CDDA
27225428
 
Скриншот спектра частот
 
Состав
阿部薫 - alto saxophone
По всем вопросам пишите личное сообщение пользователю M0p94ok.
17:04
171
Нет комментариев. Ваш будет первым!