Вы используете незарегистрированную версию компонента "Вкладки"!

Поиск

(Free Jazz, Free Improvisation) Kalaparusha Maurice McIntyre Quartet - Peace And Blessing - 1997, FLAC (tracks+.cue) lossless

Треклист:
Kalaparusha Maurice McIntyre Quartet - Peace And Blessing
Жанр: Free Jazz, Free Improvisation
Страна-производитель диска: Italy
Год издания диска: 1997
Издатель (лейбл): Black Saints Records
Номер по каталогу: BSR 120 037-2
Аудио кодек: FLAC (*.flac)
Тип рипа: tracks+.cue
Битрейт аудио: lossless
Продолжительность: 40:49
Источник (релизер): собственный рип с оригинального диска.
Наличие сканов в содержимом раздачи: да
Треклист:
01. J & M
02. African Procession
03. Anyway You Want It
04. No. 39
05. Not This
06. Hexagon
 
Лог создания рипа
Exact Audio Copy V0.99 prebeta 5 from 4. May 2009
EAC extraction logfile from 20. April 2011, 22:01
Kalaparusha Maurice McIntyre Quartet / Peace and Blessings
Used drive : TSSTcorpCDDVDW SH-S222A Adapter: 1 ID: 0
Read mode : Secure
Utilize accurate stream : Yes
Defeat audio cache : Yes
Make use of C2 pointers : No
Read offset correction : 6
Overread into Lead-In and Lead-Out : No
Fill up missing offset samples with silence : Yes
Delete leading and trailing silent blocks : No
Null samples used in CRC calculations : Yes
Used interface : Installed external ASPI interface
Gap handling : Appended to previous track
Used output format : User Defined Encoder
Selected bitrate : 768 kBit/s
Quality : High
Add ID3 tag : No
Command line compressor : C:\Tool\Compress\FLAC\flac.exe
Additional command line options : -8 -V -T "ARTIST=%a" -T "TITLE=%t" -T "ALBUM=%g" -T "DATE=%y" -T "TRACKNUMBER=%n" -T "TOTALTRACKS=%x" -T "GENRE=%m" -T "ALBUM ARTIST=%v" -T "COMMENT=EAC V0.99 prebeta 5, Secure Mode, Test & Copy, AccurateRip, FLAC -8" %s
TOC of the extracted CD
Track | Start | Length | Start sector | End sector
---------------------------------------------------------
1 | 0:00.00 | 9:25.57 | 0 | 42431
2 | 9:25.57 | 1:10.55 | 42432 | 47736
3 | 10:36.37 | 9:34.00 | 47737 | 90786
4 | 20:10.37 | 7:22.17 | 90787 | 123953
5 | 27:32.54 | 5:38.06 | 123954 | 149309
6 | 33:10.60 | 7:40.72 | 149310 | 183881
Track 1
Filename C:\! UPLOAD\Kalaparusha Maurice McIntyre Quartet - Peace and Blessings (1979) [FLAC] {Black Saint}\01 - J & M.wav
Pre-gap length 0:00:02.00
Peak level 89.9 %
Track quality 100.0 %
Test CRC C5976A55
Copy CRC C5976A55
Accurately ripped (confidence 2) [5A9B36B8]
Copy OK
Track 2
Filename C:\! UPLOAD\Kalaparusha Maurice McIntyre Quartet - Peace and Blessings (1979) [FLAC] {Black Saint}\02 - African Procession.wav
Peak level 76.5 %
Track quality 99.8 %
Test CRC 51F89186
Copy CRC 51F89186
Accurately ripped (confidence 2) [667A66DD]
Copy OK
Track 3
Filename C:\! UPLOAD\Kalaparusha Maurice McIntyre Quartet - Peace and Blessings (1979) [FLAC] {Black Saint}\03 - Anyway You Want It x.wav
Peak level 95.1 %
Track quality 100.0 %
Test CRC BC86889F
Copy CRC BC86889F
Accurately ripped (confidence 2) [6AAA564F]
Copy OK
Track 4
Filename C:\! UPLOAD\Kalaparusha Maurice McIntyre Quartet - Peace and Blessings (1979) [FLAC] {Black Saint}\04 - No 39.wav
Peak level 84.7 %
Track quality 100.0 %
Test CRC 38C88AEF
Copy CRC 38C88AEF
Accurately ripped (confidence 2) [0F4686BD]
Copy OK
Track 5
Filename C:\! UPLOAD\Kalaparusha Maurice McIntyre Quartet - Peace and Blessings (1979) [FLAC] {Black Saint}\05 - Not This.wav
Peak level 94.6 %
Track quality 100.0 %
Test CRC C5F91832
Copy CRC C5F91832
Accurately ripped (confidence 2) [F70D6D14]
Copy OK
Track 6
Filename C:\! UPLOAD\Kalaparusha Maurice McIntyre Quartet - Peace and Blessings (1979) [FLAC] {Black Saint}\06 - Hexagon.wav
Peak level 88.8 %
Track quality 100.0 %
Test CRC 68A5642E
Copy CRC 68A5642E
Track not present in AccurateRip database
Copy OK
5 track(s) accurately ripped
1 track(s) not present in the AccurateRip database
Some tracks could not be verified as accurate
No errors occurred
End of status report
 
Содержание индексной карты (.CUE)
REM GENRE Jazz
REM DATE 1979
REM DISCID 50099306
REM COMMENT "ExactAudioCopy v0.99pb5"
PERFORMER "Kalaparusha Maurice McIntyre Quartet"
TITLE "Peace and Blessings"
FILE "01 - J & M.wav" WAVE
TRACK 01 AUDIO
TITLE "J & M"
PERFORMER "Kalaparusha Maurice McIntyre Quartet"
INDEX 01 00:00:00
FILE "02 - African Procession.wav" WAVE
TRACK 02 AUDIO
TITLE "African Procession"
PERFORMER "Kalaparusha Maurice McIntyre Quartet"
INDEX 01 00:00:00
FILE "03 - Anyway You Want It x.wav" WAVE
TRACK 03 AUDIO
TITLE "Anyway You Want It *"
PERFORMER "Kalaparusha Maurice McIntyre Quartet"
INDEX 01 00:00:00
FILE "04 - No 39.wav" WAVE
TRACK 04 AUDIO
TITLE "No 39"
PERFORMER "Kalaparusha Maurice McIntyre Quartet"
INDEX 01 00:00:00
FILE "05 - Not This.wav" WAVE
TRACK 05 AUDIO
TITLE "Not This"
PERFORMER "Kalaparusha Maurice McIntyre Quartet"
INDEX 01 00:00:00
FILE "06 - Hexagon.wav" WAVE
TRACK 06 AUDIO
TITLE "Hexagon"
PERFORMER "Kalaparusha Maurice McIntyre Quartet"
INDEX 01 00:00:00
Доп. информация:
Recorded June 18, 1979 at Barigozzi Studios, Milano by Giancarlo Barigozzi.
 
Об исполнителе (группе)
A set recorded in Italy, but with all the soulful roots of Kalaparusha's earlier years with the AACM – an incredible balance of tone and timing, handled by a quartet that also includes Longineu Parsons on trumpet and reeds, Leonard Jones on bass, and King I Mock on drums! Kalaparusha plays a host of wonderful reeds – tenor, clarinet, and lots of flute – plus some percussion too, alternating with the reeds in a real Art Ensemble kind of way. And the tracks on the set have this beautifully building quality that's quite organic at times – really pushing the boundaries, but never going too far out – and carved out of sound with some especially great lines on the reeds.
 
Об альбоме (сборнике)
This obscure set features passionate blowing by Kalaparusha Maurice McIntyre (heard on tenor, flute, clarinet, bass clarinet and percussion) along with the little-known Longineu Parson on trumpet, flugelhorn, flute, sopranino and recorders, bassist Leonard Jones, and drummer King Mock. The quartet performs five McIntyre originals and one by Parsons, and the emphasis is on intense solos and very free improvising. There is plenty of fire displayed on this spirited set.
 
Состав
Longineu Parsons - trumpet, flugelhorn, flute, sopranino, soprano, alto recorders
Kalaparusha Maurice McIntyre - tenor sax, flute , clarinet, bass clarinet, shenai, bells
Leonard Jones - bass
King I. Mock - drums
Any questions -> support@pro-jazz.com. По всем вопросам пишите -> support@pro-jazz.com
11:54
156
Нет комментариев. Ваш будет первым!