Вы используете незарегистрированную версию компонента "Вкладки"!

Поиск

(Free Jazz, Free Improvisation) Han Bennink - Nerve Beats - 2000 (1973), FLAC (tracks+.cue) lossless

(Free Jazz, Free Improvisation) Han Bennink - Nerve Beats - 2000 (1973), FLAC (tracks+.cue) lossless
Треклист:
Han Bennink / Nerve Beats
Жанр: Free Jazz, Free Improvisation
Страна-производитель диска: США
Год издания диска: 2000 (1973)
Издатель (лейбл): Atavistic
Номер по каталогу: UMS/ALP206CD
Страна: Нидерланды
Аудио кодек: FLAC (*.flac)
Тип рипа: tracks+.cue
Битрейт аудио: lossless
Продолжительность: 47:05
Источник (релизер): вот.сиди (letskillsamt)
Наличие сканов в содержимом раздачи: да
Треклист:
1 Bumble Rumble 4:18
2 Spooky Drums 26:04
3 Nerve Beats 16:36
 
Лог создания рипа
Exact Audio Copy V0.99 prebeta 5 from 4. May 2009
EAC extraction logfile from 8. October 2010, 22:59
Han Bennink / Nerve Beats
Used drive : HL-DT-STDVD+-RW GSA-T11N Adapter: 1 ID: 0
Read mode : Secure
Utilize accurate stream : Yes
Defeat audio cache : Yes
Make use of C2 pointers : No
Read offset correction : 667
Overread into Lead-In and Lead-Out : No
Fill up missing offset samples with silence : Yes
Delete leading and trailing silent blocks : No
Null samples used in CRC calculations : Yes
Used interface : Native Win32 interface for Win NT & 2000
Gap handling : Appended to previous track
Used output format : User Defined Encoder
Selected bitrate : 128 kBit/s
Quality : High
Add ID3 tag : No
Command line compressor : C:\Program Files\Exact Audio Copy\Flac\flac.exe
Additional command line options : -V -8 -T "artist=%a" -T "title=%t" -T "album=%g" -T "date=%y" -T "tracknumber=%n" -T "genre=%m" %s
TOC of the extracted CD
Track | Start | Length | Start sector | End sector
---------------------------------------------------------
1 | 0:01.00 | 4:21.37 | 75 | 19686
2 | 4:22.37 | 26:07.17 | 19687 | 137228
3 | 30:29.54 | 16:36.35 | 137229 | 211963
Track 1
Filename C:\EAC Rips\Han Bennink - Nerve Beats (1973) [FLAC] {ALP206CD}\01 - Bumble Rumble.wav
Pre-gap length 0:00:03.00
Peak level 87.7 %
Track quality 100.0 %
Test CRC CD6495FD
Copy CRC CD6495FD
Cannot be verified as accurate (confidence 2) [64176449], AccurateRip returned [D8A69777]
Copy OK
Track 2
Filename C:\EAC Rips\Han Bennink - Nerve Beats (1973) [FLAC] {ALP206CD}\02 - Spooky Drums.wav
Pre-gap length 0:00:02.78
Peak level 100.0 %
Track quality 100.0 %
Test CRC 729C77AF
Copy CRC 729C77AF
Cannot be verified as accurate (confidence 2) [73C23C26], AccurateRip returned [7A7D7130]
Copy OK
Track 3
Filename C:\EAC Rips\Han Bennink - Nerve Beats (1973) [FLAC] {ALP206CD}\03 - Nerve Beats.wav
Pre-gap length 0:00:02.64
Peak level 69.3 %
Track quality 100.0 %
Test CRC 86D3442E
Copy CRC 86D3442E
Cannot be verified as accurate (confidence 2) [82CFF45D], AccurateRip returned [753CE140]
Copy OK
No tracks could be verified as accurate
You may have a different pressing from the one(s) in the database
No errors occurred
End of status report
 
Содержание индексной карты (.CUE)
REM GENRE jazz
REM DATE 1973
REM DISCID 1C0B0903
REM COMMENT "ExactAudioCopy v0.99pb5"
FILE "Han Bennink - Nerve Beats (1973) [FLAC] {ALP206CD}\01 - Bumble Rumble.wav" WAVE
TRACK 01 AUDIO
PREGAP 00:01:00
INDEX 01 00:00:00
TRACK 02 AUDIO
INDEX 00 04:18:53
FILE "Han Bennink - Nerve Beats (1973) [FLAC] {ALP206CD}\02 - Spooky Drums.wav" WAVE
INDEX 01 00:00:00
TRACK 03 AUDIO
INDEX 00 26:04:44
FILE "Han Bennink - Nerve Beats (1973) [FLAC] {ALP206CD}\03 - Nerve Beats.wav" WAVE
INDEX 01 00:00:00
 
Лог проверки качества
AUDIOCHECKER v2.0 beta (build 457) - by Dester - opdester@freemail.hu
~~~~~~~~~~~~~~~~~~~~~~~~~~~~~~~~~~
-=== DO NOT EDIT THIS FILE! ===-
Path: ...\Han Bennink - Nerve Beats (1973) [FLAC] {ALP206CD}
1 -=- 01 - Bumble Rumble.flac -=- CDDA (99%)
2 -=- 02 - Spooky Drums.flac -=- CDDA (100%)
3 -=- 03 - Nerve Beats.flac -=- CDDA (100%)
Summary 99,67% CDDA
258700020
 
Об альбоме (сборнике)
Recorded for Germany's Radio Bremen in 1973
 
Состав
Han Bennink - drums, tablas, trombone, clarinet, rhythm-machine, anything/everything...
Any questions -> support@pro-jazz.com. По всем вопросам пишите -> support@pro-jazz.com
04:12
163
Нет комментариев. Ваш будет первым!