Вы используете незарегистрированную версию компонента "Вкладки"!

Поиск

(Free Jazz, Free Improvisation) Gunter Sommer / Sylvain Kassap / Didier Levallet - BIB - 2002, FLAC (image+.cue), lossless

(Free Jazz, Free Improvisation) Gunter Sommer / Sylvain Kassap / Didier Levallet - BIB - 2002, FLAC (image+.cue), lossless
Треклист:
Günter Sommer - Sylvain Kassap - Didier Levallet / BIB
Жанр: Free Jazz, Free Improvisation
Страна-производитель диска: Germany
Год издания: 2002
Издатель (лейбл): FMP
Номер по каталогу: CD 51
Аудиокодек: FLAC (*.flac)
Тип рипа: image+.cue
Битрейт аудио: lossless
Продолжительность: 52:02
Источник (релизер): cd
Наличие сканов в содержимом раздачи: нет
Треклист:
1 Von Dakinis Und Anderen Göttinen 11:52
2 Primeur 4:20
3 Auf Dem Weg Zur Alpe Laguz 4:30
4 Pastouron-Pastourende 6:23
5 Jimmi's Ghost 3:46
6 Three For The Festival And One For Roland 13:34
7 Trio Für Maïté 4:50
8 Vertreibung Der Dibbuks 2:42
 
Лог создания рипа
Exact Audio Copy V1.0 beta 2 from 29. April 2011
EAC extraction logfile from 13. March 2013, 13:24
Sommer, Kassap, Levallet / BIB
Used drive : Optiarc DVD RW AD-7170A Adapter: 0 ID: 0
Read mode : Secure
Utilize accurate stream : Yes
Defeat audio cache : Yes
Make use of C2 pointers : No
Read offset correction : 48
Overread into Lead-In and Lead-Out : No
Fill up missing offset samples with silence : Yes
Delete leading and trailing silent blocks : No
Null samples used in CRC calculations : Yes
Used interface : Native Win32 interface for Win NT & 2000
Used output format : User Defined Encoder
Selected bitrate : 320 kBit/s
Quality : High
Add ID3 tag : No
Command line compressor : C:\Program Files\Exact Audio Copy\Flac\flac.exe
Additional command line options : -V -8 -T "Date=%year%" -T "Genre=%genre%" %source%
TOC of the extracted CD
Track | Start | Length | Start sector | End sector
---------------------------------------------------------
1 | 0:00.00 | 11:52.65 | 0 | 53464
2 | 11:52.65 | 4:20.67 | 53465 | 73031
3 | 16:13.57 | 4:30.00 | 73032 | 93281
4 | 20:43.57 | 6:23.74 | 93282 | 122080
5 | 27:07.56 | 3:46.59 | 122081 | 139089
6 | 30:54.40 | 13:34.21 | 139090 | 200160
7 | 44:28.61 | 4:50.64 | 200161 | 221974
8 | 49:19.50 | 2:42.55 | 221975 | 234179
Range status and errors
Selected range
Filename L:\ЕАС\Sommer, Kassap, Levallet - BIB.wav
Peak level 96.3 %
Extraction speed 1.9 X
Range quality 100.0 %
Test CRC 03A87129
Copy CRC 03A87129
Copy OK
No errors occurred
AccurateRip summary
Track 1 not present in database
Track 2 not present in database
Track 3 not present in database
Track 4 not present in database
Track 5 not present in database
Track 6 not present in database
Track 7 not present in database
Track 8 not present in database
None of the tracks are present in the AccurateRip database
End of status report
==== Log checksum D716FF875631401C4610A86392074CEBB94A2DB827C6CE8D5FD0484259F3FE42 ====
 
Содержание индексной карты (.CUE)
REM GENRE Jazz
REM DATE 2002
REM DISCID 760C3208
REM COMMENT "ExactAudioCopy v1.0b2"
PERFORMER "Sommer, Kassap, Levallet"
TITLE "BIB"
FILE "Sommer, Kassap, Levallet - BIB.flac" WAVE
TRACK 01 AUDIO
TITLE "VON DAKINIS UND ANDEREN GOTTINNEN"
PERFORMER "Sommer, Kassap, Levallet"
ISRC 000000000000
FLAGS DCP
INDEX 01 00:00:00
TRACK 02 AUDIO
TITLE "PRIMEUR"
PERFORMER "Sommer, Kassap, Levallet"
ISRC 000000000000
FLAGS DCP
INDEX 01 11:52:65
TRACK 03 AUDIO
TITLE "AUF DEM WEG ZUR ALPE LAGUZ"
PERFORMER "Sommer, Kassap, Levallet"
ISRC 000000000000
FLAGS DCP
INDEX 01 16:13:57
TRACK 04 AUDIO
TITLE "PASTOURON-PASTOURENDE"
PERFORMER "Sommer, Kassap, Levallet"
ISRC 000000000000
FLAGS DCP
INDEX 01 20:43:57
TRACK 05 AUDIO
TITLE "JIMMY.S GHOST"
PERFORMER "Sommer, Kassap, Levallet"
ISRC 000000000000
FLAGS DCP
INDEX 01 27:07:56
TRACK 06 AUDIO
TITLE "THREE FOR THE FESTIVAL AND ONE FOR ROLAND"
PERFORMER "Sommer, Kassap, Levallet"
ISRC 000000000000
FLAGS DCP
INDEX 01 30:54:40
TRACK 07 AUDIO
TITLE "TRIO FOR MAITE"
PERFORMER "Sommer, Kassap, Levallet"
ISRC 000000000000
FLAGS DCP
INDEX 01 44:28:61
TRACK 08 AUDIO
TITLE "VERTREIBUNG DER DIBBUKS"
PERFORMER "Sommer, Kassap, Levallet"
ISRC 000000000000
FLAGS DCP
INDEX 01 49:19:50
Доп. информация: Recorded on 9 & 11 July 1992 at "Workshop Freie Musik" at the Akademie Der Künste, Berlin
 
Состав
Double Bass – Didier Levallet
Drums, Percussion – Günter Sommer
Soprano Saxophone, Tenor Saxophone, Clarinet, Bass Clarinet – Sylvain Kassap
Any questions -> support@pro-jazz.com. По всем вопросам пишите -> support@pro-jazz.com
10:06
147
Нет комментариев. Ваш будет первым!