Вы используете незарегистрированную версию компонента "Вкладки"!

Поиск

(Free Jazz, Free Improvisation) Grix (Floros Floridis, Antonis Anissegos, Yorgos Dimitriadis) - Sweet, Sour, Sharp & Soft - 2009, FLAC (image+.cue), lossless

Треклист:
Grix / Sweet, Sour, Sharp & Soft
Жанр: Free Jazz, Free Improvisation
Страна-производитель диска: Germany
Год издания: 2009
Издатель (лейбл): Jazzwerkstatt
Номер по каталогу: JW041
Аудиокодек: FLAC (*.flac)
Тип рипа: image+.cue
Битрейт аудио: lossless
Продолжительность: 53:37
Источник (релизер): cd
Наличие сканов в содержимом раздачи: нет
Треклист:
1 Fto 3:46
2 Yofka 4:02
3 Melekouni 5:05
4 Lavasia 3:13
5 Psirouk 4:13
6 Trakounia 4:13
7 Kassa 3:41
8 Froutalia 3:43
9 Bourbourelia 5:04
10 Sarsoumades 5:19
11 Pitaroudia 5:48
12 Katimeria 5:31
 
Лог создания рипа
Exact Audio Copy V1.0 beta 2 from 29. April 2011
EAC extraction logfile from 28. April 2012, 19:54
Grix / Sweet, Sour, Sharp & Soft
Used drive : Optiarc DVD RW AD-7170A Adapter: 0 ID: 0
Read mode : Secure
Utilize accurate stream : Yes
Defeat audio cache : Yes
Make use of C2 pointers : No
Read offset correction : 48
Overread into Lead-In and Lead-Out : No
Fill up missing offset samples with silence : Yes
Delete leading and trailing silent blocks : No
Null samples used in CRC calculations : Yes
Used interface : Native Win32 interface for Win NT & 2000
Used output format : User Defined Encoder
Selected bitrate : 320 kBit/s
Quality : High
Add ID3 tag : No
Command line compressor : C:\Program Files\Exact Audio Copy\Flac\flac.exe
Additional command line options : -V -8 -T "Date=%year%" -T "Genre=%genre%" %source%
TOC of the extracted CD
Track | Start | Length | Start sector | End sector
---------------------------------------------------------
1 | 0:00.00 | 3:45.40 | 0 | 16914
2 | 3:45.40 | 4:02.11 | 16915 | 35075
3 | 7:47.51 | 5:04.64 | 35076 | 57939
4 | 12:52.40 | 3:13.19 | 57940 | 72433
5 | 16:05.59 | 4:13.35 | 72434 | 91443
6 | 20:19.19 | 4:12.60 | 91444 | 110403
7 | 24:32.04 | 3:41.32 | 110404 | 127010
8 | 28:13.36 | 3:42.72 | 127011 | 143732
9 | 31:56.33 | 5:03.63 | 143733 | 166520
10 | 37:00.21 | 5:18.43 | 166521 | 190413
11 | 42:18.64 | 5:48.23 | 190414 | 216536
12 | 48:07.12 | 5:30.58 | 216537 | 241344
Range status and errors
Selected range
Filename C:\EAC\Downloads\Grix - Sweet, Sour, Sharp & Soft.wav
Peak level 100.0 %
Extraction speed 2.0 X
Range quality 100.0 %
Test CRC 0A930AF3
Copy CRC 0A930AF3
Copy OK
No errors occurred
AccurateRip summary
Track 1 not present in database
Track 2 not present in database
Track 3 not present in database
Track 4 not present in database
Track 5 not present in database
Track 6 not present in database
Track 7 not present in database
Track 8 not present in database
Track 9 not present in database
Track 10 not present in database
Track 11 not present in database
Track 12 not present in database
None of the tracks are present in the AccurateRip database
End of status report
==== Log checksum CB16E0A445D2C50D894650D3D2B0B7AB044C9AEE20081A49FF0DF6F81E1430A6 ====
 
Содержание индексной карты (.CUE)
REM GENRE Jazz
REM DATE 2009
REM DISCID B40C910C
REM COMMENT "ExactAudioCopy v1.0b2"
PERFORMER "Grix"
TITLE "Sweet, Sour, Sharp & Soft"
FILE "Grix - Sweet, Sour, Sharp & Soft.flac" WAVE
TRACK 01 AUDIO
TITLE "Fto"
PERFORMER "Grix"
INDEX 01 00:00:00
TRACK 02 AUDIO
TITLE "Yofka"
PERFORMER "Grix"
INDEX 00 03:45:31
INDEX 01 03:45:40
TRACK 03 AUDIO
TITLE "Melekouni"
PERFORMER "Grix"
INDEX 00 07:47:15
INDEX 01 07:47:51
TRACK 04 AUDIO
TITLE "Lavasia"
PERFORMER "Grix"
INDEX 00 12:51:51
INDEX 01 12:52:40
TRACK 05 AUDIO
TITLE "Psirouk"
PERFORMER "Grix"
INDEX 00 16:04:36
INDEX 01 16:05:59
TRACK 06 AUDIO
TITLE "Trakounia"
PERFORMER "Grix"
INDEX 00 20:17:49
INDEX 01 20:19:19
TRACK 07 AUDIO
TITLE "Kassa"
PERFORMER "Grix"
INDEX 00 24:31:54
INDEX 01 24:32:04
TRACK 08 AUDIO
TITLE "Froutalia"
PERFORMER "Grix"
INDEX 00 28:12:10
INDEX 01 28:13:36
TRACK 09 AUDIO
TITLE "Bourbourelia"
PERFORMER "Grix"
INDEX 00 31:55:47
INDEX 01 31:56:33
TRACK 10 AUDIO
TITLE "Sarsoumades"
PERFORMER "Grix"
INDEX 00 36:59:63
INDEX 01 37:00:21
TRACK 11 AUDIO
TITLE "Pitaroudia"
PERFORMER "Grix"
INDEX 00 42:16:60
INDEX 01 42:18:64
TRACK 12 AUDIO
TITLE "Katimeria"
PERFORMER "Grix"
INDEX 00 48:06:13
INDEX 01 48:07:12
 
Состав
Alto Saxophone, Clarinet, Bass Clarinet – Floros Floridis
Drums – Yorgos Dimitriadis
Piano – Antonis Anissegos
Any questions -> support@pro-jazz.com. По всем вопросам пишите -> support@pro-jazz.com
00:29
147
Нет комментариев. Ваш будет первым!