Вы используете незарегистрированную версию компонента "Вкладки"!

Поиск

(Free Jazz, Free Improvisation) Frode Gjerstad Quartet (Bobby Bradford, Borah Bergman, Peeroan akLaff) - Ikosa Mura - 1998, FLAC (image+.cue), lossless

(Free Jazz, Free Improvisation) Frode Gjerstad Quartet (Bobby Bradford, Borah Bergman, Peeroan akLaff) - Ikosa Mura - 1998, FLAC (image+.cue), lossless
Треклист:
Frode Gjerstad Quartet / Ikosa Mura
Жанр: Free Jazz, Free Improvisation
Страна-производитель диска: US
Год издания: 1998
Издатель (лейбл): Cadence Jazz Records
Номер по каталогу: CJR 1089
Аудиокодек: FLAC (*.flac)
Тип рипа: image+.cue
Битрейт аудио: lossless
Продолжительность: 64:50
Источник (релизер): cd
Наличие сканов в содержимом раздачи: нет
Треклист:
1 Ikosa Mura 7:24
2 Branu Vali 5:10
3 Ika Kulabo 11:29
4 Flana Nua 2:33
5 Kasi Vanla 11:38
6 Ouli Zlenak 15:59
7 Abua Dukot 10:29
 
Лог создания рипа
Exact Audio Copy V1.0 beta 2 from 29. April 2011
EAC extraction logfile from 4. May 2013, 17:20
Frode Gjerstad Quartet / Ikosa Mura
Used drive : Optiarc DVD RW AD-7170A Adapter: 0 ID: 0
Read mode : Secure
Utilize accurate stream : Yes
Defeat audio cache : Yes
Make use of C2 pointers : No
Read offset correction : 48
Overread into Lead-In and Lead-Out : No
Fill up missing offset samples with silence : Yes
Delete leading and trailing silent blocks : No
Null samples used in CRC calculations : Yes
Used interface : Native Win32 interface for Win NT & 2000
Used output format : User Defined Encoder
Selected bitrate : 320 kBit/s
Quality : High
Add ID3 tag : No
Command line compressor : C:\Program Files\Exact Audio Copy\Flac\flac.exe
Additional command line options : -V -8 -T "Date=%year%" -T "Genre=%genre%" %source%
TOC of the extracted CD
Track | Start | Length | Start sector | End sector
---------------------------------------------------------
1 | 0:00.00 | 7:24.28 | 0 | 33327
2 | 7:24.28 | 5:09.02 | 33328 | 56504
3 | 12:33.30 | 11:30.07 | 56505 | 108261
4 | 24:03.37 | 2:33.08 | 108262 | 119744
5 | 26:36.45 | 11:38.63 | 119745 | 172157
6 | 38:15.33 | 16:00.06 | 172158 | 244163
7 | 54:15.39 | 10:34.59 | 244164 | 291772
Range status and errors
Selected range
Filename K:\ЕАС\Frode Gjerstad Quartet - Ikosa Mura.wav
Peak level 98.8 %
Extraction speed 2.0 X
Range quality 99.9 %
Test CRC 7E04ABF0
Copy CRC 7E04ABF0
Copy OK
No errors occurred
AccurateRip summary
Track 1 not present in database
Track 2 not present in database
Track 3 not present in database
Track 4 not present in database
Track 5 not present in database
Track 6 not present in database
Track 7 not present in database
None of the tracks are present in the AccurateRip database
End of status report
==== Log checksum 9EAE5AF4C55928A73AC89E79BAADD741005C684FEB5411D887BFDC12226AA5DC ====
 
Содержание индексной карты (.CUE)
REM GENRE Jazz
REM DATE 1997
REM DISCID 6B0F3207
REM COMMENT "ExactAudioCopy v1.0b2"
PERFORMER "Frode Gjerstad Quartet"
TITLE "Ikosa Mura"
FILE "Frode Gjerstad Quartet - Ikosa Mura.flac" WAVE
TRACK 01 AUDIO
TITLE "Ikosa Mura"
PERFORMER "Frode Gjerstad Quartet"
ISRC 000000000000
INDEX 01 00:00:00
TRACK 02 AUDIO
TITLE "Branu Vali"
PERFORMER "Frode Gjerstad Quartet"
ISRC 000000000000
INDEX 01 07:24:28
TRACK 03 AUDIO
TITLE "Ika Kulabo"
PERFORMER "Frode Gjerstad Quartet"
ISRC 000000000000
INDEX 01 12:33:30
TRACK 04 AUDIO
TITLE "Flana Nua"
PERFORMER "Frode Gjerstad Quartet"
ISRC 000000000000
INDEX 01 24:03:37
TRACK 05 AUDIO
TITLE "Kasi Vanla"
PERFORMER "Frode Gjerstad Quartet"
ISRC 000000000000
INDEX 01 26:36:45
TRACK 06 AUDIO
TITLE "Ouli Zlenak"
PERFORMER "Frode Gjerstad Quartet"
ISRC 000000000000
INDEX 01 38:15:33
TRACK 07 AUDIO
TITLE "Abua Dukot"
PERFORMER "Frode Gjerstad Quartet"
ISRC 000000000000
INDEX 00 54:13:10
INDEX 01 54:15:39
Доп. информация: Recorded September 14th 1997 at Tom Tedesco Studios, New Jersey
 
Состав
Drums – Peeroan akLaff
Piano – Borah Bergman
Tenor Saxophone – Frode Gjerstad
Trumpet – Bobby Bradford
Any questions -> support@pro-jazz.com. По всем вопросам пишите -> support@pro-jazz.com
12:57
158
Нет комментариев. Ваш будет первым!