Вы используете незарегистрированную версию компонента "Вкладки"!

Поиск

(Free Jazz, Free Improvisation) Frode Gjerstad, Fred Lonberg-Holm, Michael Zerang - Sugar Maple - 2010, FLAC (image+.cue), lossless

(Free Jazz, Free Improvisation) Frode Gjerstad, Fred Lonberg-Holm, Michael Zerang - Sugar Maple - 2010, FLAC (image+.cue), lossless
Треклист:
Frode Gjerstad, Fred Lonberg-Holm, Michael Zerang / Sugar Maple
Жанр: Free Jazz, Free Improvisation
Страна-производитель диска: UK
Год издания: 2010
Издатель (лейбл): FMR Records
Номер по каталогу: FMRCD289-0410
Аудиокодек: FLAC (*.flac)
Тип рипа: image+.cue
Битрейт аудио: lossless
Продолжительность: 61:48
Источник (релизер): cd
Наличие сканов в содержимом раздачи: нет
Треклист:
1 Corymbs 24:07
2 Double Samara 13:09
3 Acer Saccharum 16:00
4 Angio Sperms 8:24
 
Лог создания рипа
Exact Audio Copy V1.0 beta 2 from 29. April 2011
EAC extraction logfile from 6. September 2012, 19:22
Frode Gjerstad, Fred Lonberg-Holm, Michael Zerang / Sugar Maple
Used drive : Optiarc DVD RW AD-7170A Adapter: 0 ID: 0
Read mode : Secure
Utilize accurate stream : Yes
Defeat audio cache : Yes
Make use of C2 pointers : No
Read offset correction : 48
Overread into Lead-In and Lead-Out : No
Fill up missing offset samples with silence : Yes
Delete leading and trailing silent blocks : No
Null samples used in CRC calculations : Yes
Used interface : Native Win32 interface for Win NT & 2000
Used output format : User Defined Encoder
Selected bitrate : 320 kBit/s
Quality : High
Add ID3 tag : No
Command line compressor : C:\Program Files\Exact Audio Copy\Flac\flac.exe
Additional command line options : -V -8 -T "Date=%year%" -T "Genre=%genre%" %source%
TOC of the extracted CD
Track | Start | Length | Start sector | End sector
---------------------------------------------------------
1 | 0:00.00 | 24:10.33 | 0 | 108782
2 | 24:10.33 | 13:12.22 | 108783 | 168204
3 | 37:22.55 | 16:01.52 | 168205 | 240331
4 | 53:24.32 | 8:24.35 | 240332 | 278166
Range status and errors
Selected range
Filename K:\ЕАС\Frode Gjerstad, Fred Lonberg-Holm, Michael Zerang - Sugar Maple.wav
Peak level 100.0 %
Extraction speed 2.0 X
Range quality 100.0 %
Test CRC 324F7148
Copy CRC 324F7148
Copy OK
No errors occurred
AccurateRip summary
Track 1 not present in database
Track 2 not present in database
Track 3 not present in database
Track 4 not present in database
None of the tracks are present in the AccurateRip database
End of status report
==== Log checksum 823F23B683D3417035E937BB3F4799AE6F3557BC72C553382018F34F573121F9 ====
 
Содержание индексной карты (.CUE)
REM GENRE Jazz
REM DATE 2010
REM DISCID 250E7C04
REM COMMENT "ExactAudioCopy v1.0b2"
PERFORMER "Frode Gjerstad, Fred Lonberg-Holm, Michael Zerang"
TITLE "Sugar Maple"
FILE "Frode Gjerstad, Fred Lonberg-Holm, Michael Zerang - Sugar Maple.flac" WAVE
TRACK 01 AUDIO
TITLE "Corymbs"
PERFORMER "Frode Gjerstad, Fred Lonberg-Holm, Michael Zerang"
ISRC 000000000000
INDEX 01 00:00:00
TRACK 02 AUDIO
TITLE "Double Samara"
PERFORMER "Frode Gjerstad, Fred Lonberg-Holm, Michael Zerang"
ISRC 000000000000
INDEX 00 24:07:33
INDEX 01 24:10:33
TRACK 03 AUDIO
TITLE "Acer Saccharum"
PERFORMER "Frode Gjerstad, Fred Lonberg-Holm, Michael Zerang"
ISRC 000000000000
INDEX 00 37:19:55
INDEX 01 37:22:55
TRACK 04 AUDIO
TITLE "Angio Sperms"
PERFORMER "Frode Gjerstad, Fred Lonberg-Holm, Michael Zerang"
ISRC 000000000000
INDEX 00 53:22:32
INDEX 01 53:24:32
Доп. информация: Recorded at the Sugar Maple, Milwaukee, on October 10th 2009
 
Состав
Alto Saxophone, Clarinet [Clarinets] – Frode Gjerstad
Cello, Electronics – Fred Lonberg-Holm
Percussion – Michael Zerang
Any questions -> support@pro-jazz.com. По всем вопросам пишите -> support@pro-jazz.com
03:36
116
Нет комментариев. Ваш будет первым!