Вы используете незарегистрированную версию компонента "Вкладки"!

Поиск

(Free Jazz, Free Improvisation) Free Fall - A38 Ship, Budapest, Hungary 8 March, 2012 (Bootleg) - 2012, FLAC (tracks), lossless

(Free Jazz, Free Improvisation) Free Fall - A38 Ship, Budapest, Hungary 8 March, 2012 (Bootleg) - 2012, FLAC (tracks), lossless
Треклист:
Marc Edwards Trio Featuring Sabir Mateen, Hill Greene / Red Sprites & Blue Jets
Жанр: Free Jazz
Страна-производитель диска: Canada
Год издания диска: 1997
Издатель (лейбл): CIMP
Номер по каталогу: 128
Аудиокодек: FLAC (*.flac)
Тип рипа: image+.cue
Битрейт аудио: lossless
Продолжительность: 74:00
Источник (релизер): cd
Наличие сканов в содержимом раздачи: нет
Треклист:
1. Positive Charge - Negative Release 11:30
2. Upper Atmosphere 13:57
3. African Rain Dance 12:05
4. Red Sprites & Blue Jets 15:07
5. Morning Dew 21:20
 
Лог создания рипа
Exact Audio Copy V1.0 beta 2 from 29. April 2011
EAC extraction logfile from 11. March 2012, 17:52
Marc Edwards Trio / Red Sprites & Blue Jets
Used drive : Optiarc DVD RW AD-7170A Adapter: 0 ID: 0
Read mode : Secure
Utilize accurate stream : Yes
Defeat audio cache : Yes
Make use of C2 pointers : No
Read offset correction : 48
Overread into Lead-In and Lead-Out : No
Fill up missing offset samples with silence : Yes
Delete leading and trailing silent blocks : No
Null samples used in CRC calculations : Yes
Used interface : Native Win32 interface for Win NT & 2000
Used output format : User Defined Encoder
Selected bitrate : 320 kBit/s
Quality : High
Add ID3 tag : No
Command line compressor : C:\Program Files\Exact Audio Copy\Flac\flac.exe
Additional command line options : -V -8 -T "Date=%year%" -T "Genre=%genre%" %source%
TOC of the extracted CD
Track | Start | Length | Start sector | End sector
---------------------------------------------------------
1 | 0:00.00 | 11:30.04 | 0 | 51753
2 | 11:30.04 | 13:57.30 | 51754 | 114558
3 | 25:27.34 | 12:05.38 | 114559 | 168971
4 | 37:32.72 | 15:07.08 | 168972 | 237004
5 | 52:40.05 | 21:20.45 | 237005 | 333049
Range status and errors
Selected range
Filename C:\EAC\Downloads\Marc Edwards Trio - Red Sprites & Blue Jets.wav
Peak level 95.0 %
Extraction speed 2.3 X
Range quality 100.0 %
Test CRC CC392399
Copy CRC CC392399
Copy OK
No errors occurred
AccurateRip summary
Track 1 accurately ripped (confidence 3) [783CEA76] (AR v1)
Track 2 accurately ripped (confidence 3) [6636AE02] (AR v1)
Track 3 accurately ripped (confidence 3) [7EF40086] (AR v1)
Track 4 accurately ripped (confidence 3) [2CFCBAF5] (AR v1)
Track 5 accurately ripped (confidence 3) [3E03E7BA] (AR v1)
All tracks accurately ripped
End of status report
==== Log checksum 883083388A0B8FB9C15DE753B5E2B4B248AE6D21A07E1D8CBC4324C5BB06F5EC ====
 
Содержание индексной карты (.CUE)
REM GENRE Jazz
REM DATE 1997
REM DISCID 3D115805
REM COMMENT "ExactAudioCopy v1.0b2"
CATALOG 0000000000000
PERFORMER "Marc Edwards Trio"
TITLE "Red Sprites & Blue Jets"
FILE "Marc Edwards Trio - Red Sprites & Blue Jets.flac" WAVE
TRACK 01 AUDIO
TITLE "Positive Charge - Negative Release"
PERFORMER "Marc Edwards Trio"
FLAGS DCP
INDEX 01 00:00:00
TRACK 02 AUDIO
TITLE "Upper Atmosphere"
PERFORMER "Marc Edwards Trio"
FLAGS DCP
INDEX 00 11:28:19
INDEX 01 11:30:04
TRACK 03 AUDIO
TITLE "African Rain Dance"
PERFORMER "Marc Edwards Trio"
FLAGS DCP
INDEX 00 25:25:49
INDEX 01 25:27:34
TRACK 04 AUDIO
TITLE "Red Sprites & Blue Jets"
PERFORMER "Marc Edwards Trio"
FLAGS DCP
INDEX 00 37:31:12
INDEX 01 37:32:72
TRACK 05 AUDIO
TITLE "Morning Dew"
PERFORMER "Marc Edwards Trio"
FLAGS DCP
INDEX 00 52:38:20
INDEX 01 52:40:05
 
Состав
Bass – Hill Greene
Drums – Marc Edwards
Saxophone – Sabir Mateen
Any questions -> support@pro-jazz.com. По всем вопросам пишите -> support@pro-jazz.com
22:54
187
Нет комментариев. Ваш будет первым!