Вы используете незарегистрированную версию компонента "Вкладки"!

Поиск

(Free Jazz, Free Improvisation) Fred Anderson - Back at the Velvet Lounge - 2003, FLAC (tracks+.cue), lossless

(Free Jazz, Free Improvisation) Fred Anderson - Back at the Velvet Lounge - 2003, FLAC (tracks+.cue), lossless
Треклист:
Fred Anderson / Back at the Velvet Lounge
Жанр: Free Jazz, Free Improvisation
Страна-производитель диска: U.S.A.
Год издания: 2003
Издатель (лейбл): Delmark Records
Номер по каталогу: DG-549
Аудиокодек: FLAC (*.flac)
Тип рипа: tracks+.cue
Битрейт аудио: lossless
Продолжительность: 1:07:00
Источник (релизер): Max Monteiro
Наличие сканов в содержимом раздачи: нет
Треклист:
1. Fougeux 13:14
2. Olivia 16:29
3. Job Market Blues 13:56
4. Syene 10:43
5. King Fish 12:39
All compositions by Fred Anderson.
 
Лог создания рипа
Exact Audio Copy V1.0 beta 3 from 29. August 2011
EAC extraction logfile from 3. May 2013, 18:55
Fred Anderson / Back at the Velvet Lounge
Used drive : SlimtypeeNAU508 5 Adapter: 1 ID: 0
Read mode : Secure
Utilize accurate stream : Yes
Defeat audio cache : Yes
Make use of C2 pointers : No
Read offset correction : 6
Overread into Lead-In and Lead-Out : No
Fill up missing offset samples with silence : Yes
Delete leading and trailing silent blocks : No
Null samples used in CRC calculations : Yes
Used interface : Native Win32 interface for Win NT & 2000
Gap handling : Appended to previous track
Used output format : User Defined Encoder
Selected bitrate : 768 kBit/s
Quality : High
Add ID3 tag : No
Command line compressor : C:\Program Files (x86)\Exact Audio Copy\Flac\flac.exe
Additional command line options : -8 -V -T "ARTIST=%artist%" -T "TITLE=%title%" -T "ALBUM=%albumtitle%" -T "DATE=%year%" -T "TRACKNUMBER=%tracknr%" -T "GENRE=%genre%" -T "PERFORMER=%albuminterpret%" -T "COMPOSER=%composer%" %haslyrics%--tag-from-file=LYRICS="%lyricsfile%"%haslyrics% -T "ALBUMARTIST=%albumartist%" -T "DISCNUMBER=%cdnumber%" -T "TOTALDISCS=%totalcds%" -T "TOTALTRACKS=%numtracks%" -T "COMMENT=%comment%" %source% -o %dest%
TOC of the extracted CD
Track | Start | Length | Start sector | End sector
---------------------------------------------------------
1 | 0:00.00 | 13:13.52 | 0 | 59526
2 | 13:13.52 | 16:28.54 | 59527 | 133680
3 | 29:42.31 | 13:56.04 | 133681 | 196384
4 | 43:38.35 | 10:42.41 | 196385 | 244575
5 | 54:21.01 | 12:38.49 | 244576 | 301474
Track 1
Filename C:\EAC rips\01 - Fougeux.wav
Pre-gap length 0:00:02.00
Peak level 98.8 %
Extraction speed 1.3 X
Track quality 100.0 %
Test CRC 2892518D
Copy CRC 2892518D
Accurately ripped (confidence 6) [ACEC22A8] (AR v1)
Copy OK
Track 2
Filename C:\EAC rips\02 - Olivia.wav
Peak level 98.8 %
Extraction speed 1.6 X
Track quality 99.9 %
Test CRC 17B3256E
Copy CRC 17B3256E
Accurately ripped (confidence 6) [F703CE55] (AR v1)
Copy OK
Track 3
Filename C:\EAC rips\03 - Job Market Blues.wav
Peak level 98.8 %
Extraction speed 2.0 X
Track quality 100.0 %
Test CRC F79B57EB
Copy CRC F79B57EB
Accurately ripped (confidence 6) [1C2DB0D2] (AR v1)
Copy OK
Track 4
Filename C:\EAC rips\04 - Syene.wav
Peak level 98.8 %
Extraction speed 2.2 X
Track quality 100.0 %
Test CRC F51ECA00
Copy CRC F51ECA00
Accurately ripped (confidence 6) [9EF42B6D] (AR v1)
Copy OK
Track 5
Filename C:\EAC rips\05 - King Fish.wav
Peak level 98.8 %
Extraction speed 2.4 X
Track quality 100.0 %
Test CRC 40517CDA
Copy CRC 40517CDA
Accurately ripped (confidence 5) [1C676D1A] (AR v1)
Copy OK
All tracks accurately ripped
No errors occurred
End of status report
---- CUETools DB Plugin V2.1.4
[CTDB TOCID: MwfTq6mR6BpenD.bLJUCnqn1tew-] found
Submit result: MwfTq6mR6BpenD.bLJUCnqn1tew- has been confirmed
Track | CTDB Status
1 | (1/1) Accurately ripped
2 | (1/1) Accurately ripped
3 | (1/1) Accurately ripped
4 | (1/1) Accurately ripped
5 | (1/1) Accurately ripped
==== Log checksum 39BDC9CADF0D4158754D8BD76AE968A6838EFB81AF98681E1EEC78BCAA8D0C1E ====
 
Содержание индексной карты (.CUE)
REM GENRE Jazz
REM DATE 2003
REM DISCID 430FB305
REM COMMENT "ExactAudioCopy v1.0b3"
PERFORMER "Fred Anderson"
TITLE "Back at the Velvet Lounge"
FILE "01 - Fougeux.wav" WAVE
TRACK 01 AUDIO
TITLE "Fougeux"
PERFORMER "Fred Anderson"
INDEX 01 00:00:00
FILE "02 - Olivia.wav" WAVE
TRACK 02 AUDIO
TITLE "Olivia"
PERFORMER "Fred Anderson"
INDEX 01 00:00:00
FILE "03 - Job Market Blues.wav" WAVE
TRACK 03 AUDIO
TITLE "Job Market Blues"
PERFORMER "Fred Anderson"
INDEX 01 00:00:00
FILE "04 - Syene.wav" WAVE
TRACK 04 AUDIO
TITLE "Syene"
PERFORMER "Fred Anderson"
INDEX 01 00:00:00
FILE "05 - King Fish.wav" WAVE
TRACK 05 AUDIO
TITLE "King Fish"
PERFORMER "Fred Anderson"
INDEX 01 00:00:00
Доп. информация:
Recorded November 18, 2002.
 
Состав
Fred Anderson – Tenor Sax
Maurice Brown – Trumpet
Jeff Parker – Guitar
Harrison Bankhead – Acoustic Guitar (3), Bass (1, 2)
Tatsu Aoki – Bass (2-5)
Chad Taylor – Drums
Any questions -> support@pro-jazz.com. По всем вопросам пишите -> support@pro-jazz.com
11:48
152
Нет комментариев. Ваш будет первым!