Вы используете незарегистрированную версию компонента "Вкладки"!

Поиск

(Free Jazz, Free Improvisation, FMR) Mark O'Leary (w/ Stefan Pasborg & Jacob Anderskov) - Atmos - 2009, FLAC (tracks+.cue), lossless

(Free Jazz, Free Improvisation, FMR) Mark O'Leary (w/ Stefan Pasborg & Jacob Anderskov) - Atmos - 2009, FLAC (tracks+.cue), lossless
Треклист:
Mark O'Leary (w/ Stefan Pasborg & Jacob Anderskov) / Atmos
Жанр: Free Jazz, Free Improvisation, FMR
Страна-производитель диска: UK
Год издания: 2009
Издатель (лейбл): FMR Records
Номер по каталогу: FMRCD279-0709
Страна: Ireland, Denmark
Аудиокодек: FLAC (*.flac)
Тип рипа: tracks+.cue
Битрейт аудио: lossless
Продолжительность: 64:33
Источник (релизер): свой фирменный диск
Наличие сканов в содержимом раздачи:
Треклист:
1 Blackfriars
2 Stigmata
3 Mariners Rhyme
4 Purple Sol
5 Demians Voyage
6 Bohemia
7 Myriad
8 Searching For Necronomicon
9 Solaris
10 Komeda
11 Atmos
12 Return To Sion
 
Лог создания рипа
Exact Audio Copy V1.0 beta 3 from 29. August 2011
EAC extraction logfile from 28. July 2013, 18:22
Mark O'Leary / Atmos
Used drive : PIONEER DVD-RW DVR-115D Adapter: 0 ID: 0
Read mode : Secure
Utilize accurate stream : Yes
Defeat audio cache : Yes
Make use of C2 pointers : No
Read offset correction : 48
Overread into Lead-In and Lead-Out : No
Fill up missing offset samples with silence : Yes
Delete leading and trailing silent blocks : No
Null samples used in CRC calculations : Yes
Used interface : Installed external ASPI interface
Gap handling : Appended to previous track
Used output format : User Defined Encoder
Selected bitrate : 896 kBit/s
Quality : High
Add ID3 tag : No
Command line compressor : C:\Program Files\Exact Audio Copy\FLAC\FLAC.EXE
Additional command line options : -6 -V -T "ARTIST=%artist%" -T "TITLE=%title%" -T "ALBUM=%albumtitle%" -T "DATE=%year%" -T "TRACKNUMBER=%tracknr%" -T "GENRE=%genre%" -T "COMMENT=%comment%" -T "BAND=%albuminterpret%" -T "COMPOSER=%composer%" %haslyrics%--tag-from-file=LYRICS="%lyricsfile%"%haslyrics% -T "DISCNUMBER=%cdnumber%" -T "TOTALDISCS=%totalcds%" -T "TOTALTRACKS=%numtracks%" %hascover%--picture="%coverfile%"%hascover% %source% -o %dest%
TOC of the extracted CD
Track | Start | Length | Start sector | End sector
---------------------------------------------------------
1 | 0:00.00 | 5:21.70 | 0 | 24144
2 | 5:21.70 | 6:46.33 | 24145 | 54627
3 | 12:08.28 | 7:15.19 | 54628 | 87271
4 | 19:23.47 | 3:37.12 | 87272 | 103558
5 | 23:00.59 | 3:51.22 | 103559 | 120905
6 | 26:52.06 | 6:09.22 | 120906 | 148602
7 | 33:01.28 | 3:56.37 | 148603 | 166339
8 | 36:57.65 | 4:15.59 | 166340 | 185523
9 | 41:13.49 | 8:11.12 | 185524 | 222360
10 | 49:24.61 | 6:20.34 | 222361 | 250894
11 | 55:45.20 | 4:27.51 | 250895 | 270970
12 | 60:12.71 | 4:20.65 | 270971 | 290535
Track 1
Filename D:\zzz\01 - Blackfriars.wav
Pre-gap length 0:00:02.00
Peak level 83.9 %
Extraction speed 4.5 X
Track quality 100.0 %
Test CRC A3D6DD94
Copy CRC A3D6DD94
Track not present in AccurateRip database
Copy OK
Track 2
Filename D:\zzz\02 - Stigmata.wav
Pre-gap length 0:00:01.72
Peak level 91.4 %
Extraction speed 4.9 X
Track quality 99.9 %
Test CRC 85524A08
Copy CRC 85524A08
Track not present in AccurateRip database
Copy OK
Track 3
Filename D:\zzz\03 - Mariners Rhyme.wav
Pre-gap length 0:00:01.74
Peak level 97.4 %
Extraction speed 5.5 X
Track quality 99.9 %
Test CRC 739109F3
Copy CRC 739109F3
Track not present in AccurateRip database
Copy OK
Track 4
Filename D:\zzz\04 - Purple Sol.wav
Pre-gap length 0:00:01.72
Peak level 97.2 %
Extraction speed 5.8 X
Track quality 100.0 %
Test CRC 703F0869
Copy CRC 703F0869
Track not present in AccurateRip database
Copy OK
Track 5
Filename D:\zzz\05 - Demians Voyage.wav
Pre-gap length 0:00:01.74
Peak level 87.7 %
Extraction speed 6.2 X
Track quality 100.0 %
Test CRC 0AB756D2
Copy CRC 0AB756D2
Track not present in AccurateRip database
Copy OK
Track 6
Filename D:\zzz\06 - Bohemia.wav
Pre-gap length 0:00:01.72
Peak level 78.5 %
Extraction speed 6.4 X
Track quality 99.9 %
Test CRC 75CBF7B4
Copy CRC 75CBF7B4
Track not present in AccurateRip database
Copy OK
Track 7
Filename D:\zzz\07 - Myriad.wav
Pre-gap length 0:00:01.74
Peak level 81.8 %
Extraction speed 6.8 X
Track quality 100.0 %
Test CRC F809B7A5
Copy CRC F809B7A5
Track not present in AccurateRip database
Copy OK
Track 8
Filename D:\zzz\08 - Searching For Necronomicon.wav
Pre-gap length 0:00:01.72
Peak level 99.9 %
Extraction speed 7.1 X
Track quality 100.0 %
Test CRC C6F575CB
Copy CRC C6F575CB
Track not present in AccurateRip database
Copy OK
Track 9
Filename D:\zzz\09 - Solaris.wav
Pre-gap length 0:00:01.74
Peak level 94.3 %
Extraction speed 8.1 X
Track quality 100.0 %
Test CRC 352BE09D
Copy CRC 352BE09D
Track not present in AccurateRip database
Copy OK
Track 10
Filename D:\zzz\10 - Komeda.wav
Pre-gap length 0:00:01.74
Peak level 96.5 %
Extraction speed 7.6 X
Track quality 99.9 %
Test CRC E7D5620D
Copy CRC E7D5620D
Track not present in AccurateRip database
Copy OK
Track 11
Filename D:\zzz\11 - Atmos.wav
Pre-gap length 0:00:01.72
Peak level 100.0 %
Extraction speed 8.1 X
Track quality 100.0 %
Test CRC E5B7E327
Copy CRC E5B7E327
Track not present in AccurateRip database
Copy OK
Track 12
Filename D:\zzz\12 - Return To Sion.wav
Pre-gap length 0:00:01.72
Peak level 100.0 %
Extraction speed 8.3 X
Track quality 100.0 %
Test CRC 56C38C0E
Copy CRC 56C38C0E
Track not present in AccurateRip database
Copy OK
None of the tracks are present in the AccurateRip database
No errors occurred
End of status report
==== Log checksum A866F5DF91B412A3F3E331B62E70634CB74E88E06B6C1F95FCC5A4FD933ABC54 ====
 
Содержание индексной карты (.CUE)
REM GENRE "Free Improvisation"
REM DATE 2009
REM DISCID A60F210C
REM COMMENT "ExactAudioCopy v1.0b3"
PERFORMER "Mark O'Leary"
TITLE "Atmos"
FILE "01 - Blackfriars.wav" WAVE
TRACK 01 AUDIO
TITLE "Blackfriars"
PERFORMER "Mark O'Leary"
INDEX 01 00:00:00
TRACK 02 AUDIO
TITLE "Stigmata"
PERFORMER "Mark O'Leary"
INDEX 00 05:19:73
FILE "02 - Stigmata.wav" WAVE
INDEX 01 00:00:00
TRACK 03 AUDIO
TITLE "Mariners Rhyme"
PERFORMER "Mark O'Leary"
INDEX 00 06:44:34
FILE "03 - Mariners Rhyme.wav" WAVE
INDEX 01 00:00:00
TRACK 04 AUDIO
TITLE "Purple Sol"
PERFORMER "Mark O'Leary"
INDEX 00 07:13:22
FILE "04 - Purple Sol.wav" WAVE
INDEX 01 00:00:00
TRACK 05 AUDIO
TITLE "Demians Voyage"
PERFORMER "Mark O'Leary"
INDEX 00 03:35:13
FILE "05 - Demians Voyage.wav" WAVE
INDEX 01 00:00:00
TRACK 06 AUDIO
TITLE "Bohemia"
PERFORMER "Mark O'Leary"
INDEX 00 03:49:25
FILE "06 - Bohemia.wav" WAVE
INDEX 01 00:00:00
TRACK 07 AUDIO
TITLE "Myriad"
PERFORMER "Mark O'Leary"
INDEX 00 06:07:23
FILE "07 - Myriad.wav" WAVE
INDEX 01 00:00:00
TRACK 08 AUDIO
TITLE "Searching For Necronomicon"
PERFORMER "Mark O'Leary"
INDEX 00 03:54:40
FILE "08 - Searching For Necronomicon.wav" WAVE
INDEX 01 00:00:00
TRACK 09 AUDIO
TITLE "Solaris"
PERFORMER "Mark O'Leary"
INDEX 00 04:13:60
FILE "09 - Solaris.wav" WAVE
INDEX 01 00:00:00
TRACK 10 AUDIO
TITLE "Komeda"
PERFORMER "Mark O'Leary"
INDEX 00 08:09:13
FILE "10 - Komeda.wav" WAVE
INDEX 01 00:00:00
TRACK 11 AUDIO
TITLE "Atmos"
PERFORMER "Mark O'Leary"
INDEX 00 06:18:37
FILE "11 - Atmos.wav" WAVE
INDEX 01 00:00:00
TRACK 12 AUDIO
TITLE "Return To Sion"
PERFORMER "Mark O'Leary"
INDEX 00 04:25:54
FILE "12 - Return To Sion.wav" WAVE
INDEX 01 00:00:00
 
Лог проверки качества
d:\>d:\aucdtect -d/-m0 d:\zzz\*.wav
auCDtect: CD records authenticity detector, version 0.8.2
Copyright (c) 2004 Oleg Berngardt. All rights reserved.
Copyright (c) 2004 Alexander Djourik. All rights reserved.
------------------------------------------------------------
Processing file: [01. Blackfriars.wav]
------------------------------------------------------------
This track looks like MPEG with probability 100%
------------------------------------------------------------
Processing file: [02. Stigmata.wav]
------------------------------------------------------------
This track looks like MPEG with probability 73%
------------------------------------------------------------
Processing file: [03. Mariners Rhyme.wav]
------------------------------------------------------------
This track looks like MPEG with probability 95%
------------------------------------------------------------
Processing file: [04. Purple Sol.wav]
------------------------------------------------------------
This track looks like MPEG with probability 100%
------------------------------------------------------------
Processing file: [05. Demians Voyage.wav]
------------------------------------------------------------
This track looks like MPEG with probability 95%
------------------------------------------------------------
Processing file: [06. Bohemia.wav]
------------------------------------------------------------
This track looks like MPEG with probability 100%
------------------------------------------------------------
Processing file: [07. Myriad.wav]
------------------------------------------------------------
This track looks like MPEG with probability 95%
------------------------------------------------------------
Processing file: [08. Searching For Necronomicon.wav]
------------------------------------------------------------
This track looks like MPEG with probability 95%
------------------------------------------------------------
Processing file: [09. Solaris.wav]
------------------------------------------------------------
This track looks like MPEG with probability 89%
------------------------------------------------------------
Processing file: [10. Komeda.wav]
------------------------------------------------------------
This track looks like MPEG with probability 98%
------------------------------------------------------------
Processing file: [11. Atmos.wav]
------------------------------------------------------------
This track looks like MPEG with probability 91%
------------------------------------------------------------
Processing file: [12. Return To Sion.wav]
------------------------------------------------------------
This track looks like MPEG with probability 100%
------------------------------------------------------------
Final Conclusion:
------------------------------------------------------------
These tracks looks like MPEGs with probability 100%
Доп. информация:
 
FMR Press Release
Atmos features Mark O'Leary on Guitar, with Danes Stefan Pasborg on Drums and Jacob Anderskov on Rhodes. Recorded in Copenhagen, its where Kid A meets Post-Ecm. A post surreal voyage influenced by the works of Lovecraft, Tarkowski, Komeda, Hesse and Coleridge. Nordic lyricism juxtaposed with dark neo gothic landscapes and infused with the arcane. Three of the pieces were composed by O'Leary, the rest were composed spontaneously during the session. A worthy successor to the classic Ellipses recording and an embarkation towards new conceptual realms.
 
Состав
Drums – Stefan Pasborg
Electric Piano [Rhodes] – Jacob Anderskov
Guitar – Mark O'Leary
Recorded March 2008 at Karma Crew Studio, Copenhagen.
По всем вопросам пишите личное сообщение пользователю M0p94ok.
16:40
165
Нет комментариев. Ваш будет первым!