Вы используете незарегистрированную версию компонента "Вкладки"!

Поиск

(Free Jazz, Free Improvisation, FMR) George Burt & Raymond MacDonald Quartet with Lol Coxhill - Coxhill Street - 2002, FLAC (tracks+.cue), lossless

(Free Jazz, Free Improvisation, FMR) George Burt & Raymond MacDonald Quartet with Lol Coxhill - Coxhill Street - 2002, FLAC (tracks+.cue), lossless
Треклист:
George Burt & Raymond MacDonald Quartet with Lol Coxhill / Coxhill Street
Жанр: Free Jazz, Free Improvisation, FMR
Страна-производитель диска: UK
Год издания: 2002
Издатель (лейбл): FMR Records
Номер по каталогу: FMRCD92-i0502
Страна: UK
Аудиокодек: FLAC (*.flac)
Тип рипа: tracks+.cue
Битрейт аудио: lossless
Продолжительность: 65:54
Источник (релизер): свой фирменный диск
Наличие сканов в содержимом раздачи:
Треклист:
1 Ego A Go Go 5:21
2 Par Le Chemin, Part 1 1:39
3 Anatomy Of Uselessness 14:06
4 Will Bells 4:29
5 Frottage Freddie 9:18
6 Meanwhile, At The Castle 3:21
7 Par Le Chemin, Part 2 1:00
8 Beginning, Whatever Happens 12:39
9 The Original Elephant Tree 14:08
 
Лог создания рипа
Exact Audio Copy V1.0 beta 3 from 29. August 2011
EAC extraction logfile from 20. June 2013, 0:21
The George Burt / Raymond MacDonald Quartet / Coxhill Street
Used drive : PIONEER DVD-RW DVR-115D Adapter: 0 ID: 0
Read mode : Secure
Utilize accurate stream : Yes
Defeat audio cache : Yes
Make use of C2 pointers : No
Read offset correction : 48
Overread into Lead-In and Lead-Out : No
Fill up missing offset samples with silence : Yes
Delete leading and trailing silent blocks : No
Null samples used in CRC calculations : Yes
Used interface : Installed external ASPI interface
Gap handling : Appended to previous track
Used output format : User Defined Encoder
Selected bitrate : 896 kBit/s
Quality : High
Add ID3 tag : No
Command line compressor : C:\Program Files\Exact Audio Copy\FLAC\FLAC.EXE
Additional command line options : -6 -V -T "ARTIST=%artist%" -T "TITLE=%title%" -T "ALBUM=%albumtitle%" -T "DATE=%year%" -T "TRACKNUMBER=%tracknr%" -T "GENRE=%genre%" -T "COMMENT=%comment%" -T "BAND=%albuminterpret%" -T "COMPOSER=%composer%" %haslyrics%--tag-from-file=LYRICS="%lyricsfile%"%haslyrics% -T "DISCNUMBER=%cdnumber%" -T "TOTALDISCS=%totalcds%" -T "TOTALTRACKS=%numtracks%" %hascover%--picture="%coverfile%"%hascover% %source% -o %dest%
TOC of the extracted CD
Track | Start | Length | Start sector | End sector
---------------------------------------------------------
1 | 0:00.00 | 5:22.50 | 0 | 24199
2 | 5:22.50 | 1:40.12 | 24200 | 31711
3 | 7:02.62 | 14:09.47 | 31712 | 95433
4 | 21:12.34 | 4:34.17 | 95434 | 116000
5 | 25:46.51 | 9:12.63 | 116001 | 157463
6 | 34:59.39 | 3:13.51 | 157464 | 171989
7 | 38:13.15 | 1:02.05 | 171990 | 176644
8 | 39:15.20 | 12:36.45 | 176645 | 233389
9 | 51:51.65 | 14:02.37 | 233390 | 296576
Track 1
Filename D:\zzz\01 - Ego A Go Go.wav
Pre-gap length 0:00:02.00
Peak level 96.5 %
Extraction speed 4.1 X
Track quality 99.9 %
Test CRC E6BFD3F0
Copy CRC E6BFD3F0
Track not present in AccurateRip database
Copy OK
Track 2
Filename D:\zzz\02 - Par Le Chemin, Part 1.wav
Pre-gap length 0:00:02.00
Peak level 96.1 %
Extraction speed 3.9 X
Track quality 100.0 %
Test CRC D1AD0717
Copy CRC D1AD0717
Track not present in AccurateRip database
Copy OK
Track 3
Filename D:\zzz\03 - Anatomy Of Uselessness.wav
Pre-gap length 0:00:02.00
Peak level 96.5 %
Extraction speed 5.9 X
Track quality 100.0 %
Test CRC B126132B
Copy CRC B126132B
Track not present in AccurateRip database
Copy OK
Track 4
Filename D:\zzz\04 - Will Bells.wav
Pre-gap length 0:00:02.00
Peak level 96.7 %
Extraction speed 5.6 X
Track quality 99.9 %
Test CRC 5AA79486
Copy CRC 5AA79486
Track not present in AccurateRip database
Copy OK
Track 5
Filename D:\zzz\05 - Frottage Freddie.wav
Pre-gap length 0:00:02.00
Peak level 96.5 %
Extraction speed 7.1 X
Track quality 100.0 %
Test CRC 92A10D78
Copy CRC 92A10D78
Track not present in AccurateRip database
Copy OK
Track 6
Filename D:\zzz\06 - Meanwhile, At The Castle.wav
Pre-gap length 0:00:02.00
Peak level 95.7 %
Extraction speed 6.7 X
Track quality 100.0 %
Test CRC FD122E8E
Copy CRC FD122E8E
Track not present in AccurateRip database
Copy OK
Track 7
Filename D:\zzz\07 - Par Le Chemin, Part 2.wav
Pre-gap length 0:00:02.00
Peak level 95.9 %
Extraction speed 3.8 X
Track quality 99.8 %
Test CRC 3E0F14CC
Copy CRC 3E0F14CC
Track not present in AccurateRip database
Copy OK
Track 8
Filename D:\zzz\08 - Beginning, Whatever Happens.wav
Pre-gap length 0:00:02.00
Peak level 96.5 %
Extraction speed 7.8 X
Track quality 99.9 %
Test CRC 836A0823
Copy CRC 836A0823
Track not present in AccurateRip database
Copy OK
Track 9
Filename D:\zzz\09 - The Original Elephant Tree.wav
Pre-gap length 0:00:02.00
Peak level 96.5 %
Extraction speed 9.0 X
Track quality 100.0 %
Test CRC 8AA05484
Copy CRC 8AA05484
Track not present in AccurateRip database
Copy OK
None of the tracks are present in the AccurateRip database
No errors occurred
End of status report
==== Log checksum 2620C8716009D728EAD10916656C705F42C6B0F8689658BBCAC949E75714418B ====
 
Содержание индексной карты (.CUE)
REM GENRE "Avant-Garde Jazz"
REM DATE 2002
REM DISCID 640F7209
REM COMMENT "ExactAudioCopy v1.0b3"
PERFORMER "The George Burt / Raymond MacDonald Quartet"
TITLE "Coxhill Street"
FILE "01 - Ego A Go Go.wav" WAVE
TRACK 01 AUDIO
TITLE "Ego A Go Go"
PERFORMER "The George Burt / Raymond MacDonald Quartet"
INDEX 01 00:00:00
TRACK 02 AUDIO
TITLE "Par Le Chemin, Part 1"
PERFORMER "The George Burt / Raymond MacDonald Quartet"
INDEX 00 05:20:50
FILE "02 - Par Le Chemin, Part 1.wav" WAVE
INDEX 01 00:00:00
TRACK 03 AUDIO
TITLE "Anatomy Of Uselessness"
PERFORMER "The George Burt / Raymond MacDonald Quartet"
INDEX 00 01:38:12
FILE "03 - Anatomy Of Uselessness.wav" WAVE
INDEX 01 00:00:00
TRACK 04 AUDIO
TITLE "Will Bells"
PERFORMER "The George Burt / Raymond MacDonald Quartet"
INDEX 00 14:07:47
FILE "04 - Will Bells.wav" WAVE
INDEX 01 00:00:00
TRACK 05 AUDIO
TITLE "Frottage Freddie"
PERFORMER "The George Burt / Raymond MacDonald Quartet"
INDEX 00 04:32:17
FILE "05 - Frottage Freddie.wav" WAVE
INDEX 01 00:00:00
TRACK 06 AUDIO
TITLE "Meanwhile, At The Castle"
PERFORMER "The George Burt / Raymond MacDonald Quartet"
INDEX 00 09:10:63
FILE "06 - Meanwhile, At The Castle.wav" WAVE
INDEX 01 00:00:00
TRACK 07 AUDIO
TITLE "Par Le Chemin, Part 2"
PERFORMER "The George Burt / Raymond MacDonald Quartet"
INDEX 00 03:11:51
FILE "07 - Par Le Chemin, Part 2.wav" WAVE
INDEX 01 00:00:00
TRACK 08 AUDIO
TITLE "Beginning, Whatever Happens"
PERFORMER "The George Burt / Raymond MacDonald Quartet"
INDEX 00 01:00:05
FILE "08 - Beginning, Whatever Happens.wav" WAVE
INDEX 01 00:00:00
TRACK 09 AUDIO
TITLE "The Original Elephant Tree"
PERFORMER "The George Burt / Raymond MacDonald Quartet"
INDEX 00 12:34:45
FILE "09 - The Original Elephant Tree.wav" WAVE
INDEX 01 00:00:00
 
Лог проверки качества
d:\>d:\aucdtect -d/-m0 d:\zzz\*.wav
auCDtect: CD records authenticity detector, version 0.8.2
Copyright (c) 2004 Oleg Berngardt. All rights reserved.
Copyright (c) 2004 Alexander Djourik. All rights reserved.
------------------------------------------------------------
Processing file: [01. Ego A Go Go.wav]
------------------------------------------------------------
This track looks like CDDA with probability 100%
------------------------------------------------------------
Processing file: [02. Par Le Chemin, Part 1.wav]
------------------------------------------------------------
This track looks like CDDA with probability 100%
------------------------------------------------------------
Processing file: [03. Anatomy Of Uselessness.wav]
------------------------------------------------------------
This track looks like CDDA with probability 100%
------------------------------------------------------------
Processing file: [04. Will Bells.wav]
------------------------------------------------------------
This track looks like CDDA with probability 100%
------------------------------------------------------------
Processing file: [05. Frottage Freddie.wav]
------------------------------------------------------------
This track looks like CDDA with probability 99%
------------------------------------------------------------
Processing file: [06. Meanwhile, At The Castle.wav]
------------------------------------------------------------
This track looks like CDDA with probability 100%
------------------------------------------------------------
Processing file: [07. Par Le Chemin, Part 2.wav]
------------------------------------------------------------
This track looks like CDDA with probability 100%
------------------------------------------------------------
Processing file: [08. Beginning, Whatever Happens.wav]
------------------------------------------------------------
This track looks like CDDA with probability 99%
------------------------------------------------------------
Processing file: [09. The Original Elephant Tree.wav]
------------------------------------------------------------
This track looks like CDDA with probability 100%
------------------------------------------------------------
Final Conclusion:
------------------------------------------------------------
These tracks looks like CDDA with probability 100%
 
Состав
Alto Saxophone, Soprano Saxophone – Raymond MacDonald
Double Bass – George Lyle
Drums – Allan Pendreigh
Guitar – George Burt
Soprano Saxophone – Lol Coxhill
Vocals, Melodica – Nicola MacDonald
Recorded on June 15th and 17th 2001 at The Foundry, Glasgow
Any questions -> support@pro-jazz.com. По всем вопросам пишите -> support@pro-jazz.com
15:16
167
Нет комментариев. Ваш будет первым!