Вы используете незарегистрированную версию компонента "Вкладки"!

Поиск

(Free Jazz, Free Improvisation) Flow Trio (Louis Belogenis, Joe Morris, Charles Downs) - Rejuvenation - 2009, FLAC (image+.cue), lossless

(Free Jazz, Free Improvisation) Flow Trio (Louis Belogenis, Joe Morris, Charles Downs) - Rejuvenation - 2009, FLAC (image+.cue), lossless
Треклист:
Flow Trio / Rejuvenation
Жанр: Free Jazz, Free Improvisation
Страна-производитель диска: US
Год издания: 2009
Издатель (лейбл): ESP Disk
Номер по каталогу: ESP 4052
Аудиокодек: FLAC (*.flac)
Тип рипа: image+.cue
Битрейт аудио: lossless
Продолжительность: 46:02
Источник (релизер): cd
Наличие сканов в содержимом раздачи: нет
Треклист:
1 Reflection 3:41
2 Slow Cab 6:12
3 Pick Up Sticks 9:53
4 Two Acts 8:18
5 Succor 5:39
6 Unfolding 5:41
7 Rejuvenation 6:37
 
Лог создания рипа
Exact Audio Copy V1.0 beta 2 from 29. April 2011
EAC extraction logfile from 20. June 2013, 15:58
Flow Trio / Rejuvenation
Used drive : Optiarc DVD RW AD-7170A Adapter: 0 ID: 0
Read mode : Secure
Utilize accurate stream : Yes
Defeat audio cache : Yes
Make use of C2 pointers : No
Read offset correction : 48
Overread into Lead-In and Lead-Out : No
Fill up missing offset samples with silence : Yes
Delete leading and trailing silent blocks : No
Null samples used in CRC calculations : Yes
Used interface : Native Win32 interface for Win NT & 2000
Used output format : User Defined Encoder
Selected bitrate : 320 kBit/s
Quality : High
Add ID3 tag : No
Command line compressor : C:\Program Files\Exact Audio Copy\Flac\flac.exe
Additional command line options : -V -8 -T "Date=%year%" -T "Genre=%genre%" %source%
TOC of the extracted CD
Track | Start | Length | Start sector | End sector
---------------------------------------------------------
1 | 0:00.00 | 3:41.11 | 0 | 16585
2 | 3:41.11 | 6:12.65 | 16586 | 44550
3 | 9:54.01 | 9:53.56 | 44551 | 89081
4 | 19:47.57 | 8:18.04 | 89082 | 126435
5 | 28:05.61 | 5:39.30 | 126436 | 151890
6 | 33:45.16 | 5:40.71 | 151891 | 177461
7 | 39:26.12 | 6:36.35 | 177462 | 207196
Range status and errors
Selected range
Filename K:\ЕАС\Flow Trio - Rejuvenation.wav
Peak level 96.7 %
Extraction speed 1.8 X
Range quality 100.0 %
Test CRC ABCC5C4E
Copy CRC ABCC5C4E
Copy OK
No errors occurred
AccurateRip summary
Track 1 accurately ripped (confidence 1) [D7A0744B] (AR v1)
Track 2 accurately ripped (confidence 1) [E318252A] (AR v1)
Track 3 accurately ripped (confidence 1) [F01122E4] (AR v1)
Track 4 accurately ripped (confidence 1) [5B089EF9] (AR v1)
Track 5 accurately ripped (confidence 1) [EBD00401] (AR v1)
Track 6 accurately ripped (confidence 1) [2FD429E2] (AR v1)
Track 7 accurately ripped (confidence 1) [0B6C954D] (AR v1)
All tracks accurately ripped
End of status report
==== Log checksum C5088B17BA287751917934B3FC4BA0771C901DF8ACA1ABBF0B0F94EF887710DB ====
 
Содержание индексной карты (.CUE)
REM GENRE "Free Jazz"
REM DATE 2009
REM DISCID 640ACA07
REM COMMENT "ExactAudioCopy v1.0b2"
PERFORMER "Flow Trio"
TITLE "Rejuvenation"
FILE "Flow Trio - Rejuvenation.flac" WAVE
TRACK 01 AUDIO
TITLE "Reflection"
PERFORMER "Flow Trio"
ISRC 000000000000
INDEX 01 00:00:00
TRACK 02 AUDIO
TITLE "Slow Cab"
PERFORMER "Flow Trio"
ISRC 000000000000
INDEX 00 03:39:11
INDEX 01 03:41:11
TRACK 03 AUDIO
TITLE "Pick Up Sticks"
PERFORMER "Flow Trio"
ISRC 000000000000
INDEX 00 09:52:01
INDEX 01 09:54:01
TRACK 04 AUDIO
TITLE "Two Acts"
PERFORMER "Flow Trio"
ISRC 000000000000
INDEX 00 19:45:57
INDEX 01 19:47:57
TRACK 05 AUDIO
TITLE "Succor"
PERFORMER "Flow Trio"
ISRC 000000000000
INDEX 00 28:03:61
INDEX 01 28:05:61
TRACK 06 AUDIO
TITLE "Unfolding"
PERFORMER "Flow Trio"
ISRC 000000000000
INDEX 00 33:43:16
INDEX 01 33:45:16
TRACK 07 AUDIO
TITLE "Rejuvenation"
PERFORMER "Flow Trio"
ISRC 000000000000
INDEX 00 39:24:12
INDEX 01 39:26:12
Доп. информация: Recorded at Context Studio, Brooklyn, October 4, 2008
 
Состав
Bass, Written-By – Joe Morris (tracks: 2 to 7)
Drums, Written-By – Charles Downs (tracks: 2 to 7)
Tenor Saxophone, Written-By – Louis Belogenis
Any questions -> support@pro-jazz.com. По всем вопросам пишите -> support@pro-jazz.com
15:04
168
Нет комментариев. Ваш будет первым!