Вы используете незарегистрированную версию компонента "Вкладки"!

Поиск

(Free Jazz, Free Improvisation) Evan Parker, Barry Guy, Paul Lytton and Marilyn Crispell - After Appleby - 2000, FLAC (tracks+.cue) lossless

(Free Jazz, Free Improvisation) Evan Parker, Barry Guy, Paul Lytton and Marilyn Crispell - After Appleby - 2000, FLAC (tracks+.cue) lossless
Треклист:
Evan Parker, Barry Guy, Paul Lytton and Marilyn Crispell / After Appleby
Жанр: Free Jazz, Free Improvisation
Страна-производитель диска: Великобритания
Год издания диска: 2000
Издатель (лейбл): Leo Records
Номер по каталогу: CD LR 283/284
Страна: Великобритания, США
Аудио кодек: FLAC (*.flac)
Тип рипа: tracks+.cue
Битрейт аудио: lossless
Продолжительность: 2:12:07
Источник (релизер): другой трекер (iwals)
Наличие сканов в содержимом раздачи: да
Треклист:
cd1
1 Warp
2 Blue Star Kachina
3 Wax
4 Falcon's Wing
5 Wane
6 Weft
7 Where Heart Revive
8 Tchefit
recorded at Gateway studio, 28 June, 1999
cd2
1 Capnomantic Vortex [For David Mossman]
2 Fond Farewell

recorded live at Vortex, 29 June, 1999
 
Лог создания рипа
EAC extraction logfile from 30. January 2007, 23:02 for CD
parker, guy, lytton & crispell / after appleby
Used drive : LITE-ON LTR-52327S Adapter: 2 ID: 0
Read mode : Secure with NO C2, accurate stream, disable cache
Read offset correction : 6
Overread into Lead-In and Lead-Out : No
Used output format : Internal WAV Routines
44.100 Hz; 16 Bit; Stereo
Other options :
Fill up missing offset samples with silence : Yes
Delete leading and trailing silent blocks : No
Native Win32 interface for Win NT & 2000
Track 1
Filename E:\New Rip\parker, guy, lytton & crispell - after appleby\01 - warp.wav
Pre-gap length 0:00:02.00
Peak level 76.3 %
Track quality 100.0 %
Test CRC DE49EE56
Copy CRC DE49EE56
Copy OK
Track 2
Filename E:\New Rip\parker, guy, lytton & crispell - after appleby\02 - blue star.wav
Pre-gap length 0:00:03.98
Peak level 100.0 %
Track quality 100.0 %
Test CRC 5189EA2B
Copy CRC 5189EA2B
Copy OK
Track 3
Filename E:\New Rip\parker, guy, lytton & crispell - after appleby\03 - wax.wav
Pre-gap length 0:00:04.00
Peak level 52.2 %
Track quality 100.0 %
Test CRC B37BBB48
Copy CRC B37BBB48
Copy OK
Track 4
Filename E:\New Rip\parker, guy, lytton & crispell - after appleby\04 - falcon's wing.wav
Pre-gap length 0:00:04.00
Peak level 95.9 %
Track quality 100.0 %
Test CRC C3947CF2
Copy CRC C3947CF2
Copy OK
Track 5
Filename E:\New Rip\parker, guy, lytton & crispell - after appleby\05 - wane.wav
Pre-gap length 0:00:04.00
Peak level 100.0 %
Track quality 99.9 %
Test CRC AB7F27C3
Copy CRC AB7F27C3
Copy OK
Track 6
Filename E:\New Rip\parker, guy, lytton & crispell - after appleby\06 - weft.wav
Pre-gap length 0:00:04.00
Peak level 100.0 %
Track quality 100.0 %
Test CRC 1983C51E
Copy CRC 1983C51E
Copy OK
Track 7
Filename E:\New Rip\parker, guy, lytton & crispell - after appleby\07 - where heart revive.wav
Pre-gap length 0:00:03.98
Peak level 100.0 %
Track quality 100.0 %
Test CRC 2F0C8D96
Copy CRC 2F0C8D96
Copy OK
Track 8
Filename E:\New Rip\parker, guy, lytton & crispell - after appleby\08 - tchefit.wav
Pre-gap length 0:00:03.98
Peak level 100.0 %
Track quality 100.0 %
Test CRC 731402B9
Copy CRC 731402B9
Copy OK
No errors occured
End of status report


EAC extraction logfile from 31. January 2007, 23:00 for CD
parker, guy, lytton & crispell / after appleby (disc 2)
Used drive : LITE-ON LTR-52327S Adapter: 2 ID: 0
Read mode : Secure with NO C2, accurate stream, disable cache
Read offset correction : 6
Overread into Lead-In and Lead-Out : No
Used output format : Internal WAV Routines
44.100 Hz; 16 Bit; Stereo
Other options :
Fill up missing offset samples with silence : Yes
Delete leading and trailing silent blocks : No
Native Win32 interface for Win NT & 2000
Track 1
Filename E:\New Rip\parker, guy, lytton & crispell - after appleby (disc 2)\01 - Capnomantic Vortex (for David Mossman).wav
Pre-gap length 0:00:02.00
Peak level 99.5 %
Track quality 100.0 %
Test CRC 932484AE
Copy CRC 932484AE
Copy OK
Track 2
Filename E:\New Rip\parker, guy, lytton & crispell - after appleby (disc 2)\02 - Fond Farewell.wav
Pre-gap length 0:00:03.98
Peak level 80.5 %
Track quality 100.0 %
Test CRC 0B7771BD
Copy CRC 0B7771BD
Copy OK
Track 3
Filename E:\New Rip\parker, guy, lytton & crispell - after appleby (disc 2)\03 - Untitled.wav
Peak level 19.2 %
Track quality 99.4 %
Test CRC 5F8CA745
Copy CRC 5F8CA745
Copy OK
No errors occured
End of status report
 
Содержание индексной карты (.CUE)
REM GENRE Jazz
REM DATE 2000
REM DISCID 6D0F0608
REM COMMENT "ExactAudioCopy v0.95b3"
PERFORMER "Parker, Guy, Lytton & Crispell"
TITLE "after appleby"
FILE "01 - warp.wav" WAVE
TRACK 01 AUDIO
TITLE "warp"
PERFORMER "Parker, Guy, Lytton & Crispell"
INDEX 01 00:00:00
TRACK 02 AUDIO
TITLE "blue star"
PERFORMER "Parker, Guy, Lytton & Crispell"
INDEX 00 03:38:48
FILE "02 - blue star.wav" WAVE
INDEX 01 00:00:00
TRACK 03 AUDIO
TITLE "wax"
PERFORMER "Parker, Guy, Lytton & Crispell"
INDEX 00 20:05:43
FILE "03 - wax.wav" WAVE
INDEX 01 00:00:00
TRACK 04 AUDIO
TITLE "falcon's wing"
PERFORMER "Parker, Guy, Lytton & Crispell"
INDEX 00 02:57:00
FILE "04 - falcon's wing.wav" WAVE
INDEX 01 00:00:00
TRACK 05 AUDIO
TITLE "wane"
PERFORMER "Parker, Guy, Lytton & Crispell"
INDEX 00 02:54:39
FILE "05 - wane.wav" WAVE
INDEX 01 00:00:00
TRACK 06 AUDIO
TITLE "weft"
PERFORMER "Parker, Guy, Lytton & Crispell"
INDEX 00 03:10:70
FILE "06 - weft.wav" WAVE
INDEX 01 00:00:00
TRACK 07 AUDIO
TITLE "where heart revive"
PERFORMER "Parker, Guy, Lytton & Crispell"
INDEX 00 02:32:00
FILE "07 - where heart revive.wav" WAVE
INDEX 01 00:00:00
TRACK 08 AUDIO
TITLE "tchefit"
PERFORMER "Parker, Guy, Lytton & Crispell"
INDEX 00 25:14:01
FILE "08 - tchefit.wav" WAVE
INDEX 01 00:00:00


REM GENRE Avantgarde
REM DATE 2000
REM DISCID 140FF003
REM COMMENT "ExactAudioCopy v0.95b3"
PERFORMER "Parker, Guy, Lytton And Marilyn Crispell"
TITLE "after appleby (disc 2)"
FILE "01 - Capnomantic Vortex (for David Mossman).wav" WAVE
TRACK 01 AUDIO
TITLE "Capnomantic Vortex (for David Mossman)"
PERFORMER "Parker, Guy, Lytton And Marilyn Crispell "
INDEX 01 00:00:00
TRACK 02 AUDIO
TITLE "Fond Farewell"
PERFORMER "Parker, Guy, Lytton And Marilyn Crispell"
INDEX 00 51:36:72
FILE "02 - Fond Farewell.wav" WAVE
INDEX 01 00:00:00
FILE "03 - Untitled.wav" WAVE
TRACK 03 AUDIO
TITLE "Untitled"
PERFORMER "Parker, Guy, Lytton And Marilyn Crispell"
INDEX 01 00:00:00
 
Лог проверки качества
AUDIOCHECKER v2.0 beta (build 457) - by Dester - opdester@freemail.hu
~~~~~~~~~~~~~~~~~~~~~~~~~~~~~~~~~~
-=== DO NOT EDIT THIS FILE! ===-
Path: ...\After Appleby
01 -=- 01 - Warp.Flac -=- MPEG (80%)
02 -=- 02 - Blue Star.Flac -=- CDDA (100%)
03 -=- 03 - Wax.Flac -=- CDDA (100%)
04 -=- 04 - Falcon's Wing.Flac -=- CDDA (100%)
05 -=- 05 - Wane.Flac -=- CDDA (100%)
06 -=- 06 - Weft.Flac -=- CDDA (100%)
07 -=- 07 - Where Heart Revive.Flac -=- CDDA (100%)
08 -=- 08 - Tchefit.Flac -=- CDDA (100%)
Summary 90,00% CDDA
181354756


AUDIOCHECKER v2.0 beta (build 457) - by Dester - opdester@freemail.hu
~~~~~~~~~~~~~~~~~~~~~~~~~~~~~~~~~~
-=== DO NOT EDIT THIS FILE! ===-
Path: ...\After Appleby (Live)
01 -=- 01 - Capnomantic Vortex.Flac -=- CDDA (99%)
02 -=- 02 - Fond Farwell.Flac -=- CDDA (100%)
03 -=- 03 - Hidden Track.Flac -=- CDDA (100%)
Summary 99,67% CDDA
69326820
 
Скриншот спектра частот
 
Состав
Evan Parker, soprano saxophone, tenor saxophone
Barry Guy, bass
Paul Lytton, percussion
Marilyn Crispell, piano
По всем вопросам пишите личное сообщение пользователю M0p94ok.
11:11
175
Нет комментариев. Ваш будет первым!