Вы используете незарегистрированную версию компонента "Вкладки"!

Поиск

(Free Jazz, Free Improvisation) Eugene Chadbourne - Charles Tyler - Ghost Legends, FLAC (tracks+.cue), lossless

Треклист:
Eugene Chadbourne - Charles Tyler - Ghost Legends
Жанр: Free Jazz, Free Improvisation
Производитель диска: USA
Label: House of Chadula 1977B
Аудио кодек: FLAC
Тип рипа: tracks+.cue + Artwork
Битрейт аудио: lossless
Продолжительность: 58:54
Треклист:
01. In Between Comme C and Comme Saw - Chadbourne (0:30)
02. Ghost Legends - Chadbourne (0:15)
03. Usually Not the Case - Chadbourne (16:10)
04. Memories of the Schonee - Tyler (11:37)
05. Amber (Inc.) - Chadbourne (1:03)
06. Legend of the Lawmen - Tyler (7:57)
07. Improvisation - Ayler (12:06)
08. Ghosts - Ayler (8:57)
Доп. информация:
Charles Tyler -baritone saxophone & clarinet
Eugene Chadbourne - acoustic 12 string and electric 6 string guitars
Recorded live at The Brook, NYC on Sept. 17, 1977 by John Zorn
CD-R in a cardboard sleeve with Dr. Chad's unique packaging.
The complete existing tape from the duo concert "in kind of a Derek Bailey groove."
 
EAC log
Exact Audio Copy V0.99 prebeta 5 from 4. May 2009
EAC extraction logfile from 10. August 2010, 22:35
Charles Tyler-Eugene Chadbourne / Ghost Legends
Used drive : HL-DT-STDVD-ROM GDR8162B Adapter: 1 ID: 1
Read mode : Secure
Utilize accurate stream : Yes
Defeat audio cache : Yes
Make use of C2 pointers : No
Read offset correction : 102
Overread into Lead-In and Lead-Out : Yes
Fill up missing offset samples with silence : Yes
Delete leading and trailing silent blocks : No
Null samples used in CRC calculations : Yes
Used interface : Installed external ASPI interface
Gap handling : Appended to previous track
Used output format : User Defined Encoder
Selected bitrate : 768 kBit/s
Quality : High
Add ID3 tag : No
Command line compressor : C:\Program Files\FLAC\flac.exe
Additional command line options : -V -8 -T "ARTIST=%a" -T "TITLE=%t" -T "ALBUM=%g" -T "TRACKNUMBER=%n" -T "GENRE=%m" %s
TOC of the extracted CD
Track | Start | Length | Start sector | End sector
---------------------------------------------------------
1 | 0:00.00 | 0:30.17 | 0 | 2266
2 | 0:30.17 | 0:15.59 | 2267 | 3450
3 | 0:46.01 | 16:10.39 | 3451 | 76239
4 | 16:56.40 | 11:37.24 | 76240 | 128538
5 | 28:33.64 | 1:03.46 | 128539 | 133309
6 | 29:37.35 | 7:57.18 | 133310 | 169102
7 | 37:34.53 | 12:06.35 | 169103 | 223587
8 | 49:41.13 | 8:57.23 | 223588 | 263885
Track 1
Filename C:\ru up\Tyler - Ghost Legends\01 - Track01.wav
Pre-gap length 0:00:02.00
Peak level 14.5 %
Track quality 99.6 %
Test CRC 8BDFCAAA
Copy CRC 8BDFCAAA
Track not present in AccurateRip database
Copy OK
Track 2
Filename C:\ru up\Tyler - Ghost Legends\02 - Track02.wav
Peak level 14.8 %
Track quality 100.0 %
Test CRC 08FC7772
Copy CRC 08FC7772
Track not present in AccurateRip database
Copy OK
Track 3
Filename C:\ru up\Tyler - Ghost Legends\03 - Track03.wav
Peak level 38.4 %
Track quality 100.0 %
Test CRC 61D2FB1C
Copy CRC 61D2FB1C
Track not present in AccurateRip database
Copy OK
Track 4
Filename C:\ru up\Tyler - Ghost Legends\04 - Track04.wav
Peak level 33.8 %
Track quality 99.9 %
Test CRC 55EA8EC1
Copy CRC 55EA8EC1
Track not present in AccurateRip database
Copy OK
Track 5
Filename C:\ru up\Tyler - Ghost Legends\05 - Track05.wav
Peak level 25.0 %
Track quality 100.0 %
Test CRC 59E6BA02
Copy CRC 59E6BA02
Track not present in AccurateRip database
Copy OK
Track 6
Filename C:\ru up\Tyler - Ghost Legends\06 - Track06.wav
Peak level 43.3 %
Track quality 100.0 %
Test CRC 45F9006C
Copy CRC 45F9006C
Track not present in AccurateRip database
Copy OK
Track 7
Filename C:\ru up\Tyler - Ghost Legends\07 - Track07.wav
Peak level 99.7 %
Track quality 100.0 %
Test CRC 8286E73E
Copy CRC 8286E73E
Track not present in AccurateRip database
Copy OK
Track 8
Filename C:\ru up\Tyler - Ghost Legends\08 - Track08.wav
Peak level 99.6 %
Track quality 99.9 %
Test CRC FA1A0F38
Copy CRC FA1A0F38
Track not present in AccurateRip database
Copy OK
None of the tracks are present in the AccurateRip database
No errors occurred
End of status report
 
cue
REM GENRE Free-Jazz
REM DATE 1977
REM DISCID 680DBE08
REM COMMENT "ExactAudioCopy v0.99pb5"
PERFORMER "Charles Tyler-Eugene Chadbourne"
TITLE "Ghost Legends"
FILE "01 - Track01.wav" WAVE
TRACK 01 AUDIO
TITLE "Track01"
PERFORMER "Charles Tyler-Eugene Chadbourne"
INDEX 01 00:00:00
FILE "02 - Track02.wav" WAVE
TRACK 02 AUDIO
TITLE "Track02"
PERFORMER "Charles Tyler-Eugene Chadbourne"
INDEX 01 00:00:00
FILE "03 - Track03.wav" WAVE
TRACK 03 AUDIO
TITLE "Track03"
PERFORMER "Charles Tyler-Eugene Chadbourne"
INDEX 01 00:00:00
FILE "04 - Track04.wav" WAVE
TRACK 04 AUDIO
TITLE "Track04"
PERFORMER "Charles Tyler-Eugene Chadbourne"
INDEX 01 00:00:00
FILE "05 - Track05.wav" WAVE
TRACK 05 AUDIO
TITLE "Track05"
PERFORMER "Charles Tyler-Eugene Chadbourne"
INDEX 01 00:00:00
FILE "06 - Track06.wav" WAVE
TRACK 06 AUDIO
TITLE "Track06"
PERFORMER "Charles Tyler-Eugene Chadbourne"
INDEX 01 00:00:00
FILE "07 - Track07.wav" WAVE
TRACK 07 AUDIO
TITLE "Track07"
PERFORMER "Charles Tyler-Eugene Chadbourne"
INDEX 01 00:00:00
FILE "08 - Track08.wav" WAVE
TRACK 08 AUDIO
TITLE "Track08"
PERFORMER "Charles Tyler-Eugene Chadbourne"
INDEX 01 00:00:00
 
AMG Review
Sound quality is muffled but otherwise good. This is the complete tape of the performance, including "Amber," during which the tape ran out (after only a minute).
The title refers to Albert Ayler whose classic tune "Ghosts" closes the set. This duo worked pretty well, better than Chadbourne's association with Frank Lowe.
Tyler's free jazz background and tendency to flirt with contemporary music completes the guitarist's Derek Bailey-like inclinations. The saxophonist's "Legend of the Lawmen"
and Chadbourne's "In Between Comme C and Comme Saw" stand worlds apart, and yet their coming together sounds perfectly normal.
Tyler blows a beautiful clarinet solo on "Improvisation," one of the album's highlights; his colleague remains rather discreet throughout the show, leaving a lot of breathing room.
"Usually Not the Case" describes pretty well how the listener feels hearing this delicate soft-spoken piece where the guitarist shows an impressive level of restraint recalling
Roger Smith during his days with the Spontaneous Music Ensemble. François Couture, All Music Guide
http://www.eugenechadbourne.com/pages/Catalog.htm
Any questions -> support@pro-jazz.com. По всем вопросам пишите -> support@pro-jazz.com
02:17
293
Нет комментариев. Ваш будет первым!