Вы используете незарегистрированную версию компонента "Вкладки"!

Поиск

(Free Jazz, Free Improvisation) Derek Bailey, Evan Parker - Arch Duo - 1999, FLAC (tracks+.cue) lossless

(Free Jazz, Free Improvisation) Derek Bailey, Evan Parker - Arch Duo - 1999, FLAC (tracks+.cue) lossless
Треклист:
Derek Bailey, Evan Parker / Arch Duo
Жанр: Free Jazz, Free Improvisation
Страна-производитель диска: US
Год издания диска: 1999
Издатель (лейбл): Rastascan Records
Номер по каталогу: BRD 045
Аудио кодек: FLAC (*.flac)
Тип рипа: tracks+.cue
Битрейт аудио: lossless
Продолжительность: 70:27
Источник (релизер): what.cd (Jardwired2)
Наличие сканов в содержимом раздачи: нет
Треклист:
01 Untitled 12:23
02 Untitled 11:46
03 Untitled 16:51
04 Untitled 16:02
05 Untitled 13:23
 
Лог создания рипа
Exact Audio Copy V0.99 prebeta 5 from 4. May 2009
EAC extraction logfile from 29. November 2010, 21:17
Derek Bailey & Evan Parker / Arch Duo
Used drive : TSSTcorpCDDVDW SH-S223F Adapter: 1 ID: 1
Read mode : Secure
Utilize accurate stream : Yes
Defeat audio cache : Yes
Make use of C2 pointers : No
Read offset correction : 6
Overread into Lead-In and Lead-Out : No
Fill up missing offset samples with silence : Yes
Delete leading and trailing silent blocks : No
Null samples used in CRC calculations : No
Used interface : Native Win32 interface for Win NT & 2000
Gap handling : Appended to previous track
Used output format : User Defined Encoder
Selected bitrate : 320 kBit/s
Quality : High
Add ID3 tag : No
Command line compressor : C:\Program Files\Exact Audio Copy\Flac\flac.exe
Additional command line options : -V -8 -T "artist=%a" -T "title=%t" -T "album=%g" -T "date=%y" -T "tracknumber=%n" -T "genre=%m" %s
TOC of the extracted CD
Track | Start | Length | Start sector | End sector
---------------------------------------------------------
1 | 0:00.00 | 12:23.14 | 0 | 55738
2 | 12:23.14 | 11:46.03 | 55739 | 108691
3 | 24:09.17 | 16:51.66 | 108692 | 184582
4 | 41:01.08 | 16:02.41 | 184583 | 256773
5 | 57:03.49 | 13:23.58 | 256774 | 317056
Track 1
Filename J:\###Rips\Derek Bailey & Evan Parker - 1980 - Arch Duo\01 - Arch Duo 1.wav
Pre-gap length 0:00:02.00
Peak level 98.8 %
Track quality 100.0 %
Test CRC CBF2C891
Copy CRC CBF2C891
Track not present in AccurateRip database
Copy OK
Track 2
Filename J:\###Rips\Derek Bailey & Evan Parker - 1980 - Arch Duo\02 - Arch Duo 2.wav
Peak level 98.8 %
Track quality 100.0 %
Test CRC FA17AB8E
Copy CRC FA17AB8E
Track not present in AccurateRip database
Copy OK
Track 3
Filename J:\###Rips\Derek Bailey & Evan Parker - 1980 - Arch Duo\03 - Arch Duo 3.wav
Peak level 98.8 %
Track quality 100.0 %
Test CRC 329CA6B6
Copy CRC 329CA6B6
Track not present in AccurateRip database
Copy OK
Track 4
Filename J:\###Rips\Derek Bailey & Evan Parker - 1980 - Arch Duo\04 - Arch Duo 4.wav
Peak level 98.8 %
Track quality 100.0 %
Test CRC 68F917F8
Copy CRC 68F917F8
Track not present in AccurateRip database
Copy OK
Track 5
Filename J:\###Rips\Derek Bailey & Evan Parker - 1980 - Arch Duo\05 - Arch Duo 5.wav
Peak level 98.8 %
Track quality 100.0 %
Test CRC 11E36D83
Copy CRC 11E36D83
Track not present in AccurateRip database
Copy OK
None of the tracks are present in the AccurateRip database
No errors occurred
End of status report
 
Содержание индексной карты (.CUE)
REM GENRE Avantgarde
REM DATE 1980
REM DISCID 3A108305
REM COMMENT "ExactAudioCopy v0.99pb5"
PERFORMER "Derek Bailey & Evan Parker"
TITLE "Arch Duo"
FILE "01 - Arch Duo 1.wav" WAVE
TRACK 01 AUDIO
TITLE "Arch Duo 1"
PERFORMER "Derek Bailey & Evan Parker"
FLAGS DCP
INDEX 01 00:00:00
FILE "02 - Arch Duo 2.wav" WAVE
TRACK 02 AUDIO
TITLE "Arch Duo 2"
PERFORMER "Derek Bailey & Evan Parker"
FLAGS DCP
INDEX 01 00:00:00
FILE "03 - Arch Duo 3.wav" WAVE
TRACK 03 AUDIO
TITLE "Arch Duo 3"
PERFORMER "Derek Bailey & Evan Parker"
FLAGS DCP
INDEX 01 00:00:00
FILE "04 - Arch Duo 4.wav" WAVE
TRACK 04 AUDIO
TITLE "Arch Duo 4"
PERFORMER "Derek Bailey & Evan Parker"
FLAGS DCP
INDEX 01 00:00:00
FILE "05 - Arch Duo 5.wav" WAVE
TRACK 05 AUDIO
TITLE "Arch Duo 5"
PERFORMER "Derek Bailey & Evan Parker"
FLAGS DCP
INDEX 01 00:00:00
Доп. информация: Recorded live Ocober 17, 1980 at 1750 Arch Street Berkely, Ca.
 
Об альбоме (сборнике)
Review by Brian Olewnick
So named for the famed Berkeley recording studio where this session took place, Arch Duo finds longtime cohorts Derek Bailey and Evan Parker engaging in a 70-minute conversation. In the next few years, the relationship between the two would mysteriously erode to the point where they became entirely estranged, making this event all the more singular. Much of this disc is what fans of the two musicians would likely expect: strong though non-pyrotechnic improvising created through fine listening on the part of each. The third track (though a continuous performance, track divisions are provided) features some especially intense work, Bailey rubbing his strings furiously while Parker's soprano goes skirling to extreme heights. The following sections begin with some sardonic vocal commentary from Bailey before moving into some of the most abstract but rewarding portions of the set. Less lyrically than the first half, Bailey and Parker get more into the so-called "insect improv" aesthetic of their early days together, generating fascinating, bubbling hives of activity that sound at once alien and everyday, though the part of the everyday that normally operates below one's perception. Within the respective lengthy and hugely productive careers of these two figures, it would be tough to single Arch Duo out as especially crucial; each has produced more major statements in other contexts. But it's a solid, tough, creative document that fans of either or both will certainly want to hear.
 
Состав
Electric Guitar, Acoustic Guitar - Derek Bailey
Executive Producer - Gino Robair
Mastered By - Myles Boisen
Recorded By - Robert Shumaker
Soprano Saxophone, Tenor Saxophone - Evan Parker
По всем вопросам пишите личное сообщение пользователю M0p94ok.
07:55
213
Нет комментариев. Ваш будет первым!