Вы используете незарегистрированную версию компонента "Вкладки"!

Поиск

(Free Jazz, Free Improvisation) Cold Bleak Heat (Paul Flaherty, Chris Corsano, Matt Heyner, Greg Kelley) - It's Magnificent, But It Isn't War - 2005, FLAC (image+.cue), lossless

Треклист:
Cold Bleak Heat / It's Magnificent, But It Isn't War
Жанр: Free Jazz, Free Improvisation
Страна-производитель диска: US
Год издания диска: 2005
Издатель (лейбл): Family Vineyard
Номер по каталогу: FV35
Аудиокодек: FLAC (*.flac)
Тип рипа: image+.cue
Битрейт аудио: lossless
Продолжительность: 65:28
Источник (релизер): cd
Наличие сканов в содержимом раздачи: нет
Треклист:
1 Never Give 'em What They Want 7:48
2 The Blue Dabs Of Vericose Veins 5:13
3 Bloodshot Blink (Vanquished Teeth) 12:50
4 Raising The Dead (Freezer Fight) 10:49
5 Love Conquers All Motherfucker 15:54
6 You Only Live For Infinity 9:17
7 Is That All You Got? 3:38
 
Лог создания рипа
Exact Audio Copy V1.0 beta 2 from 29. April 2011
EAC extraction logfile from 11. August 2011, 9:17
Cold Bleak Heat / It's Magnificent, But It Isn't War
Used drive : Optiarc DVD RW AD-7170A Adapter: 0 ID: 0
Read mode : Secure
Utilize accurate stream : Yes
Defeat audio cache : Yes
Make use of C2 pointers : No
Read offset correction : 48
Overread into Lead-In and Lead-Out : No
Fill up missing offset samples with silence : Yes
Delete leading and trailing silent blocks : No
Null samples used in CRC calculations : Yes
Used interface : Native Win32 interface for Win NT & 2000
Used output format : User Defined Encoder
Selected bitrate : 320 kBit/s
Quality : High
Add ID3 tag : No
Command line compressor : C:\Program Files\Exact Audio Copy\Flac\flac.exe
Additional command line options : -V -8 -T "Date=%year%" -T "Genre=%genre%" %source%
TOC of the extracted CD
Track | Start | Length | Start sector | End sector
---------------------------------------------------------
1 | 0:00.00 | 7:47.68 | 0 | 35092
2 | 7:47.68 | 5:13.06 | 35093 | 58573
3 | 13:00.74 | 12:50.13 | 58574 | 116336
4 | 25:51.12 | 10:48.61 | 116337 | 164997
5 | 36:39.73 | 15:53.70 | 164998 | 236542
6 | 52:33.68 | 9:16.66 | 236543 | 278308
7 | 61:50.59 | 3:37.64 | 278309 | 294647
Range status and errors
Selected range
Filename C:\EAC\Cold Bleak Heat - It's Magnificent, But It Isn't War.wav
Peak level 99.4 %
Extraction speed 3.4 X
Range quality 99.8 %
Test CRC 039CAB14
Copy CRC 039CAB14
Copy OK
No errors occurred
AccurateRip summary
Track 1 accurately ripped (confidence 1) [C7EAFB67] (AR v1)
Track 2 accurately ripped (confidence 1) [B89F52AC] (AR v1)
Track 3 accurately ripped (confidence 1) [902A409C] (AR v1)
Track 4 accurately ripped (confidence 1) [C6F54EE5] (AR v1)
Track 5 accurately ripped (confidence 1) [EAB2E576] (AR v1)
Track 6 accurately ripped (confidence 1) [791E3AC6] (AR v1)
Track 7 accurately ripped (confidence 1) [FFBC1A32] (AR v1)
All tracks accurately ripped
End of status report
==== Log checksum C9E03C2EE5EDFC6359FA7440F9C7C56F2353ECC5DF469C343DF798992088FA3E ====
 
Содержание индексной карты (.CUE)
REM GENRE Jazz
REM DATE 2005
REM DISCID 540F5807
REM COMMENT "ExactAudioCopy v1.0b2"
PERFORMER "Cold Bleak Heat"
TITLE "It's Magnificent, But It Isn't War"
FILE "Cold Bleak Heat - It's Magnificent, But It Isn't War.flac" WAVE
TRACK 01 AUDIO
TITLE "Never Give 'Em What They Want"
PERFORMER "Cold Bleak Heat"
ISRC 000000000000
INDEX 01 00:00:00
TRACK 02 AUDIO
TITLE "The Blue Dabs Of Varicose Veins"
PERFORMER "Cold Bleak Heat"
ISRC 000000000000
INDEX 00 07:45:23
INDEX 01 07:47:68
TRACK 03 AUDIO
TITLE "Bloodshot Blink (Vanquished Teeth)"
PERFORMER "Cold Bleak Heat"
ISRC 000000000000
INDEX 00 12:58:29
INDEX 01 13:00:74
TRACK 04 AUDIO
TITLE "Raising The Dead (Freezer Fight)"
PERFORMER "Cold Bleak Heat"
ISRC 000000000000
INDEX 00 25:48:42
INDEX 01 25:51:12
TRACK 05 AUDIO
TITLE "Love Conquers All Motherfucker"
PERFORMER "Cold Bleak Heat"
ISRC 000000000000
INDEX 00 36:37:28
INDEX 01 36:39:73
TRACK 06 AUDIO
TITLE "You Only Live For Infinity"
PERFORMER "Cold Bleak Heat"
ISRC 000000000000
INDEX 00 52:31:23
INDEX 01 52:33:68
TRACK 07 AUDIO
TITLE "Is That All You Got?"
PERFORMER "Cold Bleak Heat"
ISRC 000000000000
INDEX 00 61:48:14
INDEX 01 61:50:59
Доп. информация: Recorded August 24, 2003 at PBS Studios, Westwood, Mass.
 
Состав
Bass [Acoustic] – Matt Heyner
Drums – Chris Corsano
Saxophone [Tenor, Alto], Artwork By [Cover & Disk Drawing] – Paul Flaherty
Trumpet – Greg Kelley
Any questions -> support@pro-jazz.com. По всем вопросам пишите -> support@pro-jazz.com
15:54
140
Нет комментариев. Ваш будет первым!