Вы используете незарегистрированную версию компонента "Вкладки"!

Поиск

(Free Jazz, Free Improvisation) [CD] The Roscoe Mitchell Art Ensemble (Lester Bowie, Malachi Favors, Robert Crowder) - Congliptious - 2009, FLAC (tracks+.cue), lossless

(Free Jazz, Free Improvisation) [CD] The Roscoe Mitchell Art Ensemble (Lester Bowie, Malachi Favors, Robert Crowder) - Congliptious - 2009, FLAC (tracks+.cue), lossless
Треклист:
The Roscoe Mitchell Art Ensemble / Congliptious
Жанр: Free Jazz, Free Improvisation
Носитель: CD
Страна-производитель диска (релиза): US
Год издания: 2009
Издатель (лейбл): Nessa Records
Номер по каталогу: ncd-2
Аудиокодек: FLAC (*.flac)
Тип рипа: tracks+.cue
Битрейт аудио: lossless
Продолжительность: 52:32
Источник (релизер): whatcd (harmonicon)
Наличие сканов в содержимом раздачи: нет
Треклист:
1. Tutankhamen (Bass [Solo] – Malachi Favors. Composed By – Favors) 6:38
2. TKHKE (Alto Saxophone [Solo] – Roscoe Mitchell. Composed By – Mitchell) 7:32
3. Jazz Death? (Composed By – Bowie. Trumpet [Solo] – Lester Bowie) 7:20
4. Carefree-Take 3 (Composed By – Roscoe Mitchell) 2:35
5. Tatas-Matoes (Composed By – Bowie) 2:17
6. Congliptious / Old (Composed By – Mitchell) 19:30
7. Carefree-Take 1 3:05
8. Carefree-Take 2 3:05
 
Лог создания рипа
Exact Audio Copy V1.0 beta 1 from 15. November 2010
EAC extraction logfile from 20. April 2011, 20:14
The Roscoe Mitchell Art Ensemble / Congliptious
Used drive : Optiarc DVD+-RW AD-7560S Adapter: 1 ID: 0
Read mode : Secure
Utilize accurate stream : Yes
Defeat audio cache : Yes
Make use of C2 pointers : No
Read offset correction : 6
Overread into Lead-In and Lead-Out : No
Fill up missing offset samples with silence : Yes
Delete leading and trailing silent blocks : No
Null samples used in CRC calculations : Yes
Used interface : Native Win32 interface for Win NT & 2000
Gap handling : Appended to previous track
Used output format : User Defined Encoder
Selected bitrate : 128 kBit/s
Quality : High
Add ID3 tag : No
Command line compressor : C:\Program Files\Exact Audio Copy\Flac\flac.exe
Additional command line options : -V -8 -T "artist=%a" -T "title=%t" -T "album=%g" -T "date=%y" -T "tracknumber=%n" -T "genre=%m" %s
TOC of the extracted CD
Track | Start | Length | Start sector | End sector
---------------------------------------------------------
1 | 0:00.00 | 6:41.18 | 0 | 30092
2 | 6:41.18 | 7:35.44 | 30093 | 64261
3 | 14:16.62 | 7:23.17 | 64262 | 97503
4 | 21:40.04 | 2:38.44 | 97504 | 109397
5 | 24:18.48 | 2:20.22 | 109398 | 119919
6 | 26:38.70 | 19:38.30 | 119920 | 208299
7 | 46:17.25 | 3:08.67 | 208300 | 222466
8 | 49:26.17 | 3:06.00 | 222467 | 236416
Track 1
Filename C:\EAC\The Roscoe Mitchell Art Ensemble - 1968 - Congliptious\01 - Tutankhamen.wav
Pre-gap length 0:00:02.00
Peak level 98.8 %
Extraction speed 2.8 X
Track quality 100.0 %
Test CRC 8E74958E
Copy CRC 8E74958E
Track not present in AccurateRip database
Copy OK
Track 2
Filename C:\EAC\The Roscoe Mitchell Art Ensemble - 1968 - Congliptious\02 - TKHKE.wav
Pre-gap length 0:00:03.00
Peak level 99.8 %
Extraction speed 3.1 X
Track quality 99.9 %
Test CRC 236DA249
Copy CRC 236DA249
Track not present in AccurateRip database
Copy OK
Track 3
Filename C:\EAC\The Roscoe Mitchell Art Ensemble - 1968 - Congliptious\03 - Jazz Death.wav
Pre-gap length 0:00:03.00
Peak level 100.0 %
Extraction speed 3.9 X
Track quality 100.0 %
Test CRC AEF7870B
Copy CRC AEF7870B
Track not present in AccurateRip database
Copy OK
Track 4
Filename C:\EAC\The Roscoe Mitchell Art Ensemble - 1968 - Congliptious\04 - Carefree - take 3.wav
Pre-gap length 0:00:03.00
Peak level 99.7 %
Extraction speed 3.6 X
Track quality 100.0 %
Test CRC 4C558974
Copy CRC 4C558974
Track not present in AccurateRip database
Copy OK
Track 5
Filename C:\EAC\The Roscoe Mitchell Art Ensemble - 1968 - Congliptious\05 - Tatas-Matoes.wav
Pre-gap length 0:00:03.00
Peak level 100.0 %
Extraction speed 3.6 X
Track quality 100.0 %
Test CRC 4876095A
Copy CRC 4876095A
Track not present in AccurateRip database
Copy OK
Track 6
Filename C:\EAC\The Roscoe Mitchell Art Ensemble - 1968 - Congliptious\06 - Congliptious - Old.wav
Pre-gap length 0:00:03.00
Peak level 100.0 %
Extraction speed 5.1 X
Track quality 100.0 %
Test CRC 1C777EBB
Copy CRC 1C777EBB
Track not present in AccurateRip database
Copy OK
Track 7
Filename C:\EAC\The Roscoe Mitchell Art Ensemble - 1968 - Congliptious\07 - Carefree - take 1.wav
Pre-gap length 0:00:08.00
Peak level 100.0 %
Extraction speed 4.7 X
Track quality 100.0 %
Test CRC 785D7AA4
Copy CRC 785D7AA4
Track not present in AccurateRip database
Copy OK
Track 8
Filename C:\EAC\The Roscoe Mitchell Art Ensemble - 1968 - Congliptious\08 - Crefree - take 2.wav
Pre-gap length 0:00:03.00
Peak level 100.0 %
Extraction speed 4.8 X
Track quality 100.0 %
Test CRC F07F321D
Copy CRC F07F321D
Track not present in AccurateRip database
Copy OK
None of the tracks are present in the AccurateRip database
No errors occurred
End of status report
 
Содержание индексной карты (.CUE)
REM GENRE Jazz
REM DATE 1968
REM DISCID 680C5008
REM COMMENT "ExactAudioCopy v1.0b1"
PERFORMER "The Roscoe Mitchell Art Ensemble"
TITLE "Congliptious"
FILE "The Roscoe Mitchell Art Ensemble - 1968 - Congliptious\01 - Tutankhamen.wav" WAVE
TRACK 01 AUDIO
TITLE "Tutankhamen"
PERFORMER "The Roscoe Mitchell Art Ensemble"
FLAGS DCP
INDEX 01 00:00:00
TRACK 02 AUDIO
TITLE "TKHKE"
PERFORMER "The Roscoe Mitchell Art Ensemble"
FLAGS DCP
INDEX 00 06:38:18
FILE "The Roscoe Mitchell Art Ensemble - 1968 - Congliptious\02 - TKHKE.wav" WAVE
INDEX 01 00:00:00
TRACK 03 AUDIO
TITLE "Jazz Death?"
PERFORMER "The Roscoe Mitchell Art Ensemble"
FLAGS DCP
INDEX 00 07:32:44
FILE "The Roscoe Mitchell Art Ensemble - 1968 - Congliptious\03 - Jazz Death.wav" WAVE
INDEX 01 00:00:00
TRACK 04 AUDIO
TITLE "Carefree - take 3"
PERFORMER "The Roscoe Mitchell Art Ensemble"
FLAGS DCP
INDEX 00 07:20:17
FILE "The Roscoe Mitchell Art Ensemble - 1968 - Congliptious\04 - Carefree - take 3.wav" WAVE
INDEX 01 00:00:00
TRACK 05 AUDIO
TITLE "Tatas-Matoes"
PERFORMER "The Roscoe Mitchell Art Ensemble"
FLAGS DCP
INDEX 00 02:35:44
FILE "The Roscoe Mitchell Art Ensemble - 1968 - Congliptious\05 - Tatas-Matoes.wav" WAVE
INDEX 01 00:00:00
TRACK 06 AUDIO
TITLE "Congliptious - Old"
PERFORMER "The Roscoe Mitchell Art Ensemble"
FLAGS DCP
INDEX 00 02:17:22
FILE "The Roscoe Mitchell Art Ensemble - 1968 - Congliptious\06 - Congliptious - Old.wav" WAVE
INDEX 01 00:00:00
TRACK 07 AUDIO
TITLE "Carefree - take 1"
PERFORMER "The Roscoe Mitchell Art Ensemble"
FLAGS DCP
INDEX 00 19:30:30
FILE "The Roscoe Mitchell Art Ensemble - 1968 - Congliptious\07 - Carefree - take 1.wav" WAVE
INDEX 01 00:00:00
TRACK 08 AUDIO
TITLE "Crefree - take 2"
PERFORMER "The Roscoe Mitchell Art Ensemble"
FLAGS DCP
INDEX 00 03:05:67
FILE "The Roscoe Mitchell Art Ensemble - 1968 - Congliptious\08 - Crefree - take 2.wav" WAVE
INDEX 01 00:00:00
Доп. информация: Tracks 1-3 recorded 4 March 1968 at Ter-Mar (Chess) Studios.
Tracks 4-8 recorded 11 March 1968 at Ter-Mar Studios.
 
Состав
Alto Saxophone, Soprano Saxophone, Bass Saxophone, Flute, Recorder, Gong, Performer [Little Instruments] – Roscoe Mitchell (tracks: 2, 4 to 8)
Bass, Electric Bass, Electric Guitar, Zither, Gong, Performer [Little Instruments] – Malachi Favors (tracks: 1, 4 to 8)
Drums, Gong – Robert Crowder (tracks: 4 to 8)
Trumpet, Flugelhorn, Horns [Steer Horn], Whistle [Bass Whistle], Bass Drum, Siren, Gong, Performer [Little Instruments] – Lester Bowie (tracks: 3 to 8)
По всем вопросам пишите личное сообщение пользователю M0p94ok.
16:29
170
Нет комментариев. Ваш будет первым!