Вы используете незарегистрированную версию компонента "Вкладки"!

Поиск

(Free Jazz, Free Improvisation) [CD] Sabir Mateen's Shapes, Texture And Sound Ensemble (Steve Swell, Matt Lavelle, Matthew Heyner, Michael T.A. Thompson) - Prophecies Come To Pass - 2006, FLAC (tracks+.cue), lossless

(Free Jazz, Free Improvisation) [CD] Sabir Mateen's Shapes, Texture And Sound Ensemble (Steve Swell, Matt Lavelle, Matthew Heyner, Michael T.A. Thompson) - Prophecies Come To Pass - 2006, FLAC (tracks+.cue), lossless
Треклист:
Sabir Mateen's Shapes, Texture And Sound Ensemble / Prophecies Come To Pass
Жанр: Free Jazz, Free Improvisation
Носитель: CD
Страна-производитель диска (релиза): US
Год издания: 2006
Издатель (лейбл): 577 Records
Номер по каталогу: 577-7
Аудиокодек: FLAC (*.flac)
Тип рипа: tracks+.cue
Битрейт аудио: lossless
Продолжительность: 72:44
Источник (релизер): cd
Наличие сканов в содержимом раздачи: нет
Треклист:
1. Sekasso Blues 13:54
2. The Beauty Within 7:59
3. Everyone’s Got Something To Say 8:02
4. Prophecies Come To Pass 18:27
5. Sentimentally 12:28
6. Children Of The Creator 11:51
 
Лог создания рипа
Exact Audio Copy V1.0 beta 3 from 29. August 2011
EAC extraction logfile from 14. January 2015, 23:06
Sabir Mateen's Shapes, Texture And Sound Ensemble / Prophecies Come To Pass
Used drive : ASUS DRW-24F1ST a Adapter: 0 ID: 0
Read mode : Secure
Utilize accurate stream : Yes
Defeat audio cache : Yes
Make use of C2 pointers : No
Read offset correction : 6
Overread into Lead-In and Lead-Out : No
Fill up missing offset samples with silence : Yes
Delete leading and trailing silent blocks : No
Null samples used in CRC calculations : Yes
Used interface : Native Win32 interface for Win NT & 2000
Gap handling : Appended to previous track
Used output format : User Defined Encoder
Selected bitrate : 320 kBit/s
Quality : High
Add ID3 tag : No
Command line compressor : D:\Programs\Exact Audio Copy\Flac\flac.exe
Additional command line options : -V -8 -T "Genre=%genre%" -T "Artist=%artist%" -T "Title=%title%" -T "Album=%albumtitle%" -T "Date=%year%" -T "Tracknumber=%tracknr%" -T "Comment=%comment%" %source%
TOC of the extracted CD
Track | Start | Length | Start sector | End sector
---------------------------------------------------------
1 | 0:00.00 | 13:54.66 | 0 | 62615
2 | 13:54.66 | 7:59.30 | 62616 | 98570
3 | 21:54.21 | 8:02.16 | 98571 | 134736
4 | 29:56.37 | 18:27.11 | 134737 | 217772
5 | 48:23.48 | 12:28.72 | 217773 | 273944
6 | 60:52.45 | 11:51.65 | 273945 | 327334
Track 1
Filename D:\EAC\01 Sekasso Blues.wav
Pre-gap length 0:00:02.00
Peak level 92.2 %
Extraction speed 5.6 X
Track quality 100.0 %
Test CRC 6425BDC8
Copy CRC 6425BDC8
Copy OK
Track 2
Filename D:\EAC\02 The Beauty Within.wav
Pre-gap length 0:00:01.43
Peak level 92.2 %
Extraction speed 6.0 X
Track quality 99.9 %
Test CRC 6770FDE2
Copy CRC 6770FDE2
Copy OK
Track 3
Filename D:\EAC\03 Everyone’s Got Something To Say.wav
Pre-gap length 0:00:01.08
Peak level 92.2 %
Extraction speed 7.1 X
Track quality 100.0 %
Test CRC D65E3C4F
Copy CRC D65E3C4F
Copy OK
Track 4
Filename D:\EAC\04 Prophecies Come To Pass.wav
Pre-gap length 0:00:03.44
Peak level 92.2 %
Extraction speed 8.3 X
Track quality 100.0 %
Test CRC D40B06EC
Copy CRC D40B06EC
Copy OK
Track 5
Filename D:\EAC\05 Sentimentally.wav
Pre-gap length 0:00:04.09
Peak level 92.2 %
Extraction speed 8.7 X
Track quality 99.9 %
Test CRC B59BF555
Copy CRC B59BF555
Copy OK
Track 6
Filename D:\EAC\06 Children Of The Creator.wav
Pre-gap length 0:00:01.23
Peak level 92.2 %
Extraction speed 9.7 X
Track quality 100.0 %
Test CRC E16A519A
Copy CRC E16A519A
Copy OK
No errors occurred
End of status report
==== Log checksum D4C0080D926E14FCD0EB1FCCE5985E743461E57FE8684280BD9368838CDC7A44 ====
 
Содержание индексной карты (.CUE)
REM GENRE Jazz
REM DATE 2006
REM DISCID 59110C06
REM COMMENT "ExactAudioCopy v1.0b3"
PERFORMER "Sabir Mateen's Shapes, Texture And Sound Ensemble"
TITLE "Prophecies Come To Pass"
FILE "01 Sekasso Blues.wav" WAVE
TRACK 01 AUDIO
TITLE "Sekasso Blues"
PERFORMER "Sabir Mateen's Shapes, Texture And Sound Ensemble"
ISRC USEBN0600201
INDEX 01 00:00:00
TRACK 02 AUDIO
TITLE "The Beauty Within"
PERFORMER "Sabir Mateen's Shapes, Texture And Sound Ensemble"
ISRC USEBN0600202
INDEX 00 13:53:23
FILE "02 The Beauty Within.wav" WAVE
INDEX 01 00:00:00
TRACK 03 AUDIO
TITLE "Everyone’s Got Something To Say"
PERFORMER "Sabir Mateen's Shapes, Texture And Sound Ensemble"
ISRC USEBN0600203
INDEX 00 07:58:22
FILE "03 Everyone’s Got Something To Say.wav" WAVE
INDEX 01 00:00:00
TRACK 04 AUDIO
TITLE "Prophecies Come To Pass"
PERFORMER "Sabir Mateen's Shapes, Texture And Sound Ensemble"
ISRC USEBN0600204
INDEX 00 07:58:47
FILE "04 Prophecies Come To Pass.wav" WAVE
INDEX 01 00:00:00
TRACK 05 AUDIO
TITLE "Sentimentally"
PERFORMER "Sabir Mateen's Shapes, Texture And Sound Ensemble"
ISRC USEBN0600205
INDEX 00 18:23:02
FILE "05 Sentimentally.wav" WAVE
INDEX 01 00:00:00
TRACK 06 AUDIO
TITLE "Children Of The Creator"
PERFORMER "Sabir Mateen's Shapes, Texture And Sound Ensemble"
ISRC USEBN0600206
INDEX 00 12:27:49
FILE "06 Children Of The Creator.wav" WAVE
INDEX 01 00:00:00
Доп. информация: Recorded at Zebulon, Brooklyn, New York 2005
 
Об альбоме (сборнике)
Prophecies Come to Pass is the debut recording of Sabir Mateen’s compositions by his group The Shapes, Textures, and Sound Ensemble. Recorded live in Brooklyn in September 2005, the CD was edited by Mateen and Swell and mastered under Mateen’s direction. It's dedicated to the late great Raphe Malik, who at one time played with the group. The ensemble is composed of an impressive roster of creative musicians: Mateen on saxes, flute, and clarinets; Matt Lavelle on trumpet, flugelhorn and cornet; Steve Swell on trombone; Matthew Heyner on bass; and Michael T.A. Thompson on drums and percussion. With musicians this strong, you simply can’t go wrong: they have decades of experience under their belts, and they’re guided by the venerable Mateen, one of the modern masters of creative music. The highlights include “Sekasso Blues,” a wonderful mix of classic blues imbued with the group’s completely modern sensibility. The front line of Mateen, Lavelle and Swell is red-hot here, and the song is a delight of old and new structures playing together freely. “The Beauty Within” is a treat for the ears: Mateen plays strong and lovely flute, and there’s a great duet between Heyner and Thompson. “Prophecies Come to Pass,” an eighteen-minute epic poem, allows all the musicians to shine as they explore the point of breakdown/breakthrough. The horns are majestic and powerful, often reaching spine-tingling heights, and there are more Heyner and Thompson duets. What makes this music so compelling is that the musicians are not afraid to explore primal depths of sound and energy. Their commitment and passion is inspiring—no one in this group is living a life of quiet desperation. The music points to life lived fully, with all its questions, struggles and heights. Track listing: Sekasso Blues; The Beauty Within; Everyone’s Got Something To Say; Prophecies Come To Pass; Sentimentally; Children Of The CREATOR. Personnel: Sabir Mateen: tenor and alto saxophones, flute, Bb and alto clarinets; Matt Lavelle: trumpet, pocket trumpet, flugelhorn, cornet; Steve Swell: trombone; Matthew Heyner: bass; Michael T.A. Thompson: drums, percussion.
 
Состав
Bass – Matthew Heyner
Drums, Percussion – Michael T.A. Thompson
Tenor Saxophone, Alto Saxophone, Flute, Clarinet [Bb, Alto], Music By – Sabir Mateen
Trombone – Steve Swell
Trumpet, Trumpet [Pocket], Flugelhorn, Cornet – Matt Lavelle
По всем вопросам пишите личное сообщение пользователю M0p94ok.
08:25
188
Нет комментариев. Ваш будет первым!