Вы используете незарегистрированную версию компонента "Вкладки"!

Поиск

(Free Jazz, Free Improvisation) [CD] Paul Dunmall, Peter Brandt, Tony Marsh - Deep Well - 2006, FLAC (tracks+.cue), lossless

(Free Jazz, Free Improvisation) [CD] Paul Dunmall, Peter Brandt, Tony Marsh - Deep Well - 2006, FLAC (tracks+.cue), lossless
Треклист:
Paul Dunmall, Peter Brandt, Tony Marsh / Deep Well
Жанр: Free Jazz, Free Improvisation
Носитель: CD
Страна-производитель диска (релиза): UK
Год издания: 2006
Издатель (лейбл): FMR Records
Номер по каталогу: FMRCD207-0606
Аудиокодек: FLAC (*.flac)
Тип рипа: tracks+.cue
Битрейт аудио: lossless
Продолжительность: 69:02
Источник (релизер): cd
Наличие сканов в содержимом раздачи: нет
Треклист:
1. Deep Well 5:39
2. Well Deep 18:03
3. Well You Didn't 9:19
4. Welling 14:29
5. Deep Sleep 12:17
6. Well Being 5:21
7. Hope You're Deep 3:53
 
Лог создания рипа
Exact Audio Copy V1.0 beta 3 from 29. August 2011
EAC extraction logfile from 10. March 2015, 9:22
Dunmall, Brandt, Marsh / Deep Well
Used drive : ASUS DRW-24F1ST a Adapter: 0 ID: 0
Read mode : Secure
Utilize accurate stream : Yes
Defeat audio cache : Yes
Make use of C2 pointers : No
Read offset correction : 6
Overread into Lead-In and Lead-Out : No
Fill up missing offset samples with silence : Yes
Delete leading and trailing silent blocks : No
Null samples used in CRC calculations : Yes
Used interface : Native Win32 interface for Win NT & 2000
Gap handling : Appended to previous track
Used output format : User Defined Encoder
Selected bitrate : 320 kBit/s
Quality : High
Add ID3 tag : No
Command line compressor : D:\Programs\Exact Audio Copy\Flac\flac.exe
Additional command line options : -V -8 -T "Genre=%genre%" -T "Artist=%artist%" -T "Title=%title%" -T "Album=%albumtitle%" -T "Date=%year%" -T "Tracknumber=%tracknr%" -T "Comment=%comment%" %source%
TOC of the extracted CD
Track | Start | Length | Start sector | End sector
---------------------------------------------------------
1 | 0:00.00 | 5:39.08 | 0 | 25432
2 | 5:39.08 | 18:03.19 | 25433 | 106676
3 | 23:42.27 | 9:19.19 | 106677 | 148620
4 | 33:01.46 | 14:29.18 | 148621 | 213813
5 | 47:30.64 | 12:17.14 | 213814 | 269102
6 | 59:48.03 | 5:21.06 | 269103 | 293183
7 | 65:09.09 | 3:53.07 | 293184 | 310665
Track 1
Filename D:\EAC\01 deep well.wav
Pre-gap length 0:00:02.00
Peak level 98.8 %
Extraction speed 4.6 X
Track quality 100.0 %
Test CRC 8C52841F
Copy CRC 8C52841F
Copy OK
Track 2
Filename D:\EAC\02 well deep.wav
Pre-gap length 0:00:03.00
Peak level 98.8 %
Extraction speed 6.2 X
Track quality 100.0 %
Test CRC B1485FDF
Copy CRC B1485FDF
Copy OK
Track 3
Filename D:\EAC\03 well you didn't.wav
Pre-gap length 0:00:03.00
Peak level 98.8 %
Extraction speed 7.1 X
Track quality 100.0 %
Test CRC EBCADFDB
Copy CRC EBCADFDB
Copy OK
Track 4
Filename D:\EAC\04 welling.wav
Pre-gap length 0:00:03.00
Peak level 98.8 %
Extraction speed 8.1 X
Track quality 100.0 %
Test CRC 14B599B4
Copy CRC 14B599B4
Copy OK
Track 5
Filename D:\EAC\05 deep sleep.wav
Pre-gap length 0:00:03.00
Peak level 98.8 %
Extraction speed 8.9 X
Track quality 100.0 %
Test CRC 13C771CA
Copy CRC 13C771CA
Copy OK
Track 6
Filename D:\EAC\06 well being.wav
Pre-gap length 0:00:03.00
Peak level 17.6 %
Extraction speed 8.8 X
Track quality 100.0 %
Test CRC C4534EFF
Copy CRC C4534EFF
Copy OK
Track 7
Filename D:\EAC\07 hope you're deep.wav
Pre-gap length 0:00:03.00
Peak level 92.4 %
Extraction speed 8.5 X
Track quality 100.0 %
Test CRC 28C097CE
Copy CRC 28C097CE
Copy OK
No errors occurred
End of status report
==== Log checksum 9D53EEAC836D9F84979FC1407B206F5F268D8407AC625E9918630E2A653FB3E4 ====
 
Содержание индексной карты (.CUE)
REM GENRE "Free Jazz"
REM DATE 2006
REM DISCID 5A102E07
REM COMMENT "ExactAudioCopy v1.0b3"
PERFORMER "Dunmall, Brandt, Marsh"
TITLE "Deep Well"
FILE "01 deep well.wav" WAVE
TRACK 01 AUDIO
TITLE "deep well"
PERFORMER "Dunmall, Brandt, Marsh"
INDEX 01 00:00:00
TRACK 02 AUDIO
TITLE "well deep"
PERFORMER "Dunmall, Brandt, Marsh"
INDEX 00 05:36:08
FILE "02 well deep.wav" WAVE
INDEX 01 00:00:00
TRACK 03 AUDIO
TITLE "well you didn't"
PERFORMER "Dunmall, Brandt, Marsh"
INDEX 00 18:00:19
FILE "03 well you didn't.wav" WAVE
INDEX 01 00:00:00
TRACK 04 AUDIO
TITLE "welling"
PERFORMER "Dunmall, Brandt, Marsh"
INDEX 00 09:16:19
FILE "04 welling.wav" WAVE
INDEX 01 00:00:00
TRACK 05 AUDIO
TITLE "deep sleep"
PERFORMER "Dunmall, Brandt, Marsh"
INDEX 00 14:26:18
FILE "05 deep sleep.wav" WAVE
INDEX 01 00:00:00
TRACK 06 AUDIO
TITLE "well being"
PERFORMER "Dunmall, Brandt, Marsh"
INDEX 00 12:14:14
FILE "06 well being.wav" WAVE
INDEX 01 00:00:00
TRACK 07 AUDIO
TITLE "hope you're deep"
PERFORMER "Dunmall, Brandt, Marsh"
INDEX 00 05:18:06
FILE "07 hope you're deep.wav" WAVE
INDEX 01 00:00:00
Доп. информация: Recorded 17th May 2006.
 
Состав
Double Bass – Peter Brandt
Percussion – Tony Marsh
Tenor Saxophone, Soprano Saxophone – Paul Dunmall
По всем вопросам пишите личное сообщение пользователю M0p94ok.
10:08
261
Нет комментариев. Ваш будет первым!