Вы используете незарегистрированную версию компонента "Вкладки"!

Поиск

(Free Jazz, Free Improvisation) [CD] Matthew Shipp - Mat Walerian Duo - The Uppercut (Live at Okuden) - 2015, FLAC (tracks+.cue), lossless

(Free Jazz, Free Improvisation) [CD] Matthew Shipp - Mat Walerian Duo - The Uppercut (Live at Okuden) - 2015, FLAC (tracks+.cue), lossless
Треклист:
THE UPPERCUT | MATTHEW SHIPP MAT WALERIAN DUO
live at Okuden
✦ Жанр: Free Jazz, Free Improvisation
✦ Страна-производитель диска: USA
✦ Год издания: 2015
✦ Издатель (лейбл): ESP-Disk'
✦ Номер по каталогу: ESP 5007
✦ Аудиокодек: FLAC (*.flac)
✦ Тип рипа: tracks+.cue
✦ Битрейт аудио: lossless
✦ Продолжительность: 67:25
✦ Источник (релизер): спасибо dtromp
✦ Наличие сканов: нет
✦ Треклист:
01. Introduction
02. Blues for Acid Cold
03. Jungle Meditation
04. Free Bop Statement One
05. Free Bop Statement Two
06. It's Sick Out There
07. Love and the Other Species
08. Peace and Respect
09. Black Rain
10. Encore
 
Лог создания рипа
Exact Audio Copy V1.1 from 23. June 2015
EAC extraction logfile from 8. November 2015, 12:46
Matthew Shipp Mat Walerian Duo / The Uppercut - Live at Okuden
Used drive : ATAPI iHBS112 2 Adapter: 1 ID: 0
Read mode : Secure
Utilize accurate stream : Yes
Defeat audio cache : Yes
Make use of C2 pointers : No
Read offset correction : 6
Overread into Lead-In and Lead-Out : No
Fill up missing offset samples with silence : Yes
Delete leading and trailing silent blocks : No
Null samples used in CRC calculations : Yes
Used interface : Native Win32 interface for Win NT & 2000
Gap handling : Appended to previous track
Used output format : User Defined Encoder
Selected bitrate : 1024 kBit/s
Quality : High
Add ID3 tag : No
Command line compressor : C:\Program Files\Exact Audio Copy\Flac\flac.exe
Additional command line options : -8 -V -T "ARTIST=%artist%" -T "TITLE=%title%" -T "ALBUM=%albumtitle%" -T "DATE=%year%" -T "TRACKNUMBER=%tracknr%" -T "TOTALTRACKS=%numtracks%" -T "GENRE=%genre%" -T "ALBUMARTIST=%albumartist%" -T "ALBUM ARTIST=%albumartist%" -T "COMPOSER=%composer%" -T "PERFORMER=%albuminterpret%" -T "DISCNUMBER=%cdnumber%" -T "TOTALDISCS=%totalcds%" -T "COMMENT=EAC Secure Mode, Test & Copy, AccurateRip, FLAC -8" %source%
TOC of the extracted CD
Track | Start | Length | Start sector | End sector
---------------------------------------------------------
1 | 0:00.00 | 5:42.12 | 0 | 25661
2 | 5:42.12 | 7:18.48 | 25662 | 58559
3 | 13:00.60 | 2:19.49 | 58560 | 69033
4 | 15:20.34 | 2:37.46 | 69034 | 80854
5 | 17:58.05 | 5:46.34 | 80855 | 106838
6 | 23:44.39 | 7:47.43 | 106839 | 141906
7 | 31:32.07 | 7:55.68 | 141907 | 177599
8 | 39:28.00 | 6:06.68 | 177600 | 205117
9 | 45:34.68 | 16:19.20 | 205118 | 278562
10 | 61:54.13 | 5:30.70 | 278563 | 303382
Track 1
Filename P:\DL\Matthew Shipp Mat Walerian Duo - The Uppercut - Live at Okuden (2015) [FLAC]\01 - Introduction.wav
Pre-gap length 0:00:02.00
Peak level 70.7 %
Extraction speed 5.3 X
Track quality 100.0 %
Test CRC A6350561
Copy CRC A6350561
Track not present in AccurateRip database
Copy OK
Track 2
Filename P:\DL\Matthew Shipp Mat Walerian Duo - The Uppercut - Live at Okuden (2015) [FLAC]\02 - Blues For Acid Cold.wav
Peak level 81.4 %
Extraction speed 6.2 X
Track quality 100.0 %
Test CRC CFB0B690
Copy CRC CFB0B690
Track not present in AccurateRip database
Copy OK
Track 3
Filename P:\DL\Matthew Shipp Mat Walerian Duo - The Uppercut - Live at Okuden (2015) [FLAC]\03 - Jungle Meditation.wav
Peak level 70.3 %
Extraction speed 5.8 X
Track quality 100.0 %
Test CRC B821C1E7
Copy CRC B821C1E7
Track not present in AccurateRip database
Copy OK
Track 4
Filename P:\DL\Matthew Shipp Mat Walerian Duo - The Uppercut - Live at Okuden (2015) [FLAC]\04 - Free Bop Statement One.wav
Peak level 85.3 %
Extraction speed 6.2 X
Track quality 100.0 %
Test CRC D3916293
Copy CRC D3916293
Track not present in AccurateRip database
Copy OK
Track 5
Filename P:\DL\Matthew Shipp Mat Walerian Duo - The Uppercut - Live at Okuden (2015) [FLAC]\05 - Free Bop Statement Two.wav
Peak level 98.5 %
Extraction speed 7.2 X
Track quality 100.0 %
Test CRC DA15B0CC
Copy CRC DA15B0CC
Track not present in AccurateRip database
Copy OK
Track 6
Filename P:\DL\Matthew Shipp Mat Walerian Duo - The Uppercut - Live at Okuden (2015) [FLAC]\06 - It's Sick Out There.wav
Peak level 98.6 %
Extraction speed 7.9 X
Track quality 100.0 %
Test CRC E069D9E2
Copy CRC E069D9E2
Track not present in AccurateRip database
Copy OK
Track 7
Filename P:\DL\Matthew Shipp Mat Walerian Duo - The Uppercut - Live at Okuden (2015) [FLAC]\07 - Love And The Other Species.wav
Peak level 98.8 %
Extraction speed 8.4 X
Track quality 100.0 %
Test CRC B5D807AA
Copy CRC B5D807AA
Track not present in AccurateRip database
Copy OK
Track 8
Filename P:\DL\Matthew Shipp Mat Walerian Duo - The Uppercut - Live at Okuden (2015) [FLAC]\08 - Peace And Respect.wav
Peak level 77.0 %
Extraction speed 8.7 X
Track quality 100.0 %
Test CRC 86907966
Copy CRC 86907966
Track not present in AccurateRip database
Copy OK
Track 9
Filename P:\DL\Matthew Shipp Mat Walerian Duo - The Uppercut - Live at Okuden (2015) [FLAC]\09 - Black Rain.wav
Peak level 93.9 %
Extraction speed 10.3 X
Track quality 100.0 %
Test CRC 4CEEA210
Copy CRC 4CEEA210
Track not present in AccurateRip database
Copy OK
Track 10
Filename P:\DL\Matthew Shipp Mat Walerian Duo - The Uppercut - Live at Okuden (2015) [FLAC]\10 - Encore.wav
Peak level 98.8 %
Extraction speed 10.2 X
Track quality 100.0 %
Test CRC D0C8190C
Copy CRC D0C8190C
Track not present in AccurateRip database
Copy OK
None of the tracks are present in the AccurateRip database
No errors occurred
End of status report
---- CUETools DB Plugin V2.1.6
[CTDB TOCID: e7TqM9AjsqlFuIMAbq9Utx0b8Ms-] disk not present in database
Submit result:
==== Log checksum ADD08F8D96878D71E1E19B5BA493ECF1A7566FA24B0E5CED44B0F7F137B6B0B7 ====
 
Содержание индексной карты (.CUE)
REM GENRE Jazz
REM DATE 2015
REM DISCID 860FCD0A
REM COMMENT "ExactAudioCopy v1.1"
PERFORMER "Matthew Shipp Mat Walerian Duo"
TITLE "The Uppercut - Live at Okuden"
FILE "01 - Introduction.wav" WAVE
TRACK 01 AUDIO
TITLE "Introduction"
PERFORMER "Matthew Shipp Mat Walerian Duo"
INDEX 01 00:00:00
FILE "02 - Blues For Acid Cold.wav" WAVE
TRACK 02 AUDIO
TITLE "Blues For Acid Cold"
PERFORMER "Matthew Shipp Mat Walerian Duo"
INDEX 01 00:00:00
FILE "03 - Jungle Meditation.wav" WAVE
TRACK 03 AUDIO
TITLE "Jungle Meditation"
PERFORMER "Matthew Shipp Mat Walerian Duo"
INDEX 01 00:00:00
FILE "04 - Free Bop Statement One.wav" WAVE
TRACK 04 AUDIO
TITLE "Free Bop Statement One"
PERFORMER "Matthew Shipp Mat Walerian Duo"
INDEX 01 00:00:00
FILE "05 - Free Bop Statement Two.wav" WAVE
TRACK 05 AUDIO
TITLE "Free Bop Statement Two"
PERFORMER "Matthew Shipp Mat Walerian Duo"
INDEX 01 00:00:00
FILE "06 - It's Sick Out There.wav" WAVE
TRACK 06 AUDIO
TITLE "It's Sick Out There"
PERFORMER "Matthew Shipp Mat Walerian Duo"
INDEX 01 00:00:00
FILE "07 - Love And The Other Species.wav" WAVE
TRACK 07 AUDIO
TITLE "Love And The Other Species"
PERFORMER "Matthew Shipp Mat Walerian Duo"
INDEX 01 00:00:00
FILE "08 - Peace And Respect.wav" WAVE
TRACK 08 AUDIO
TITLE "Peace And Respect"
PERFORMER "Matthew Shipp Mat Walerian Duo"
INDEX 01 00:00:00
FILE "09 - Black Rain.wav" WAVE
TRACK 09 AUDIO
TITLE "Black Rain"
PERFORMER "Matthew Shipp Mat Walerian Duo"
INDEX 01 00:00:00
FILE "10 - Encore.wav" WAVE
TRACK 10 AUDIO
TITLE "Encore"
PERFORMER "Matthew Shipp Mat Walerian Duo"
INDEX 01 00:00:00
 
Об альбоме
Jane Austen was mistaken when she wrote "Surprises are foolish things. The pleasure is not enhanced, and the inconvenience is often considerable." Passing away at the age of 41 in 1817, she would not have had the opportunity to hear either jazz, nor the music of Matthew Shipp and Mat Walerian.
The surprise here is twofold; first, the discovery of a new voice, Polish reedsman Mat Walerian and second, the opportunity to hear pianist Matthew Shipp in his most sympathetic supporting role. Shipp has played in the duo format before with horn players, notably with Roscoe Mitchell and Rob Brown, more recently with Ivo Perelman, John Butcher, and Darius Jones. Where past sessions were often defined by friction (a successful improvising strategy), this session is cloaked with a feeling of amity and warmth.
Recorded live in Torun, Poland in 2012, the audience maintains the quiet until the penultimate 16-minute piece "Black Rain." Until then, it's nearly impossible to sense their presence. Or maybe it is the audience that is the impetus for this collaboration. The concert opens with the woody bass clarinet of Walerian, who we are told is a mostly self- taught artist. His tone is more relaxed then say Eric Dolphy's, he seems unperturbed that his debut recording is with this modern master. Shipp is obliged to maintain a decorous approach, too. His signature thunderous left hand is held in reserve for much of the recording; he is content to oil a meditative saucepan, steering away from the sauté. The two alto saxophone pieces, "Free Bop Statement One" and "Free Bop Statement Two" carom and bounce with Shipp's spry, buoyant lines and Walerian giving chase. His saxophone recalls the breathy tone of Johnny Hodges. "Love And The Other Species" is a soulful semi-blues and "It's Sick Out There" ploughs a bit of delirium into the mix with its rush of emotion. The pianist plies his familiar exploratory hand to "Peace And Respect," that opens up into Walerian's meditation. The like-minded pair coauthor a genuine statement of just that peace and respect. Highly recommended.
4,5/5 stars
(Mark Corroto, AllAboutJazz)
 
Состав
Matthew Shipp - piano
Mat Walerian - alto saxophone, bass clarinet, flute
По всем вопросам пишите личное сообщение пользователю M0p94ok.
16:47
197
Нет комментариев. Ваш будет первым!