Вы используете незарегистрированную версию компонента "Вкладки"!

Поиск

(Free Jazz, Free Improvisation) [CD] Famoudou Don Moye, John Tchicai, Hartmut Geerken - The African Tapes (2CD) - 2001, FLAC (image+.cue), lossless

(Free Jazz, Free Improvisation) [CD] Famoudou Don Moye, John Tchicai, Hartmut Geerken - The African Tapes (2CD) - 2001, FLAC (image+.cue), lossless
Треклист:
Famoudou Don Moye, John Tchicai, Hartmut Geerken / The African Tapes
Жанр: Free Jazz, Free Improvisation
Носитель: CD
Страна-производитель диска: UK
Год издания: 2001
Издатель (лейбл): Golden Years Of New Jazz
Номер по каталогу: GY 9/10
Страна: UK
Аудиокодек: FLAC (*.flac)
Тип рипа: image+.cue
Битрейт аудио: lossless
Продолжительность: CD1 - 1:08:53 CD2: - 1:08:32
Источник (релизер): фирменный диск с автографом Don Moye
Наличие сканов в содержимом раздачи: да
Треклист:
Disc 1.
1-1. Mobimbirutile 7:25
1-2. Angklung Okro 6:24
1-3. Do You Go To Bago? 8:00
1-4. Backe Backe Kuchen 2:57
1-5. Akarakuru 9:53
1-6. Ghosts (Written-By – Albert Ayler ) 4:48
1-7. Post-Ramadan Exhausters 10:45
1-8. Kamsar 7:09
1-9. Yabom Kamara 9:24
1-10. Mohawk (Written-By – Charlie Parker) 1:45
Disk 2.
2-1. Bo Oh Bo 15:16
2-2. The Rainbow's Over 6:43
2-3. Conakry Overtones 2:34
2-4. Go Down Moses 3:31
2-5. Xongly Plus Monro 12:50
2-6. Reveiller Le Belleville 8:58
2-7. Pink Pepper 4:28
2-8. Panjebo-Ta 4:18
2-9. Mothers (Written-By – Albert Ayler) 7:27
2-10. Please Come To The Stage 2:24
 
Лог создания рипа
Exact Audio Copy V1.0 beta 3 from 29. August 2011
Отчёт EAC об извлечении, выполненном 13. мая 2013, 21:19
Famoudou Don Moye, John Tchicai, Hartmut Geerken / The African Tapes - CD 1
Дисковод: PIONEER DVD-RW DVR-XD10 Adapter: 2 ID: 0
Режим чтения : Достоверность
Использование точного потока : Да
Отключение кэша аудио : Да
Использование указателей C2 : Нет
Коррекция смещения при чтении : 96
Способность читать области Lead-in и Lead-out : Нет
Заполнение пропущенных сэмплов тишиной : Да
Удаление блоков с тишиной в начале и конце : Нет
При вычислениях CRC использовались нулевые сэмплы : Да
Интерфейс : Установленный внешний ASPI-интерфейс
Выходной формат : Внутренние WAV-операции
Формат сэмплов : 44.100 Гц; 16 бит; стерео
TOC извлечённого CD
Трек | Старт | Длительность | Начальный сектор | Конечный сектор
---------------------------------------------------------------------
1 | 0:00.00 | 7:27.44 | 0 | 33568
2 | 7:27.44 | 6:26.44 | 33569 | 62562
3 | 13:54.13 | 8:01.59 | 62563 | 98696
4 | 21:55.72 | 3:00.14 | 98697 | 112210
5 | 24:56.11 | 9:56.65 | 112211 | 156975
6 | 34:53.01 | 4:49.42 | 156976 | 178692
7 | 39:42.43 | 10:48.37 | 178693 | 227329
8 | 50:31.05 | 7:11.63 | 227330 | 259717
9 | 57:42.68 | 9:24.04 | 259718 | 302021
10 | 67:06.72 | 1:46.49 | 302022 | 310020
Характеристики диапазона извлечения и сообщения об ошибках
Выбранный диапазон
Имя файла D:\Moye_Tchicai_Geerken - The African Tapes\CD1\Famoudou Don Moye, John Tchicai, Hartmut Geerken - The African Tapes - CD 1.wav
Пиковый уровень 100.0 %
Скорость извлечения 4.8 X
Качество диапазона 100.0 %
CRC копии 97A6BA82
Копирование... OK
Ошибок не произошло
AccurateRip: сводка
Трек 1 отсутствует в базе данных
Трек 2 отсутствует в базе данных
Трек 3 отсутствует в базе данных
Трек 4 отсутствует в базе данных
Трек 5 отсутствует в базе данных
Трек 6 отсутствует в базе данных
Трек 7 отсутствует в базе данных
Трек 8 отсутствует в базе данных
Трек 9 отсутствует в базе данных
Трек 10 отсутствует в базе данных
Ни одного трека нет в базе AccurateRip
Конец отчёта
---- CUETools DB Plugin V2.1.3
[CTDB TOCID: C.5C25FlwOESO5c.b_0nTailUMA-] found, Submit result: database access error: Невозможно разрешить удаленное имя: 'db.cuetools.net'
[5050278b] (1/1) Accurately ripped
==== Контрольная сумма отчёта 3FA405EA52755E024E951A3BF652EA8B4C48EF1796E4EA33287DE5BC79E8A6C8 ====
Exact Audio Copy V1.0 beta 3 from 29. August 2011
Отчёт EAC об извлечении, выполненном 13. мая 2013, 22:05
Famoudou Don Moye, John Tchicai, Hartmut Geerken / The African Tapes - CD 2
Дисковод: PIONEER DVD-RW DVR-XD10 Adapter: 2 ID: 0
Режим чтения : Достоверность
Использование точного потока : Да
Отключение кэша аудио : Да
Использование указателей C2 : Нет
Коррекция смещения при чтении : 96
Способность читать области Lead-in и Lead-out : Нет
Заполнение пропущенных сэмплов тишиной : Да
Удаление блоков с тишиной в начале и конце : Нет
При вычислениях CRC использовались нулевые сэмплы : Да
Интерфейс : Установленный внешний ASPI-интерфейс
Выходной формат : Внутренние WAV-операции
Формат сэмплов : 44.100 Гц; 16 бит; стерео
TOC извлечённого CD
Трек | Старт | Длительность | Начальный сектор | Конечный сектор
---------------------------------------------------------------------
1 | 0:00.00 | 15:16.46 | 0 | 68745
2 | 15:16.46 | 6:43.05 | 68746 | 98975
3 | 21:59.51 | 2:34.31 | 98976 | 110556
4 | 24:34.07 | 3:30.56 | 110557 | 126362
5 | 28:04.63 | 12:50.08 | 126363 | 184120
6 | 40:54.71 | 8:57.57 | 184121 | 224452
7 | 49:52.53 | 4:30.32 | 224453 | 244734
8 | 54:23.10 | 4:18.64 | 244735 | 264148
9 | 58:41.74 | 7:27.10 | 264149 | 297683
10 | 66:09.09 | 2:23.59 | 297684 | 308467
Характеристики диапазона извлечения и сообщения об ошибках
Выбранный диапазон
Имя файла D:\Moye_Tchicai_Geerken - The African Tapes\CD2\Famoudou Don Moye, John Tchicai, Hartmut Geerken - The African Tapes - CD 2.wav
Пиковый уровень 51.3 %
Скорость извлечения 3.0 X
Качество диапазона 100.0 %
CRC копии F1DC3EBE
Копирование... OK
Ошибок не произошло
AccurateRip: сводка
Трек 1 отсутствует в базе данных
Трек 2 отсутствует в базе данных
Трек 3 отсутствует в базе данных
Трек 4 отсутствует в базе данных
Трек 5 отсутствует в базе данных
Трек 6 отсутствует в базе данных
Трек 7 отсутствует в базе данных
Трек 8 отсутствует в базе данных
Трек 9 отсутствует в базе данных
Трек 10 отсутствует в базе данных
Ни одного трека нет в базе AccurateRip
Конец отчёта
---- CUETools DB Plugin V2.1.3
[CTDB TOCID: 6m4_VPfNN_KMf7wdE9mVnN8AvNU-] disk not present in database, Submit result: 6m4_VPfNN_KMf7wdE9mVnN8AvNU- has been uploaded
==== Контрольная сумма отчёта 52DD1674939165F6CB98390D114748AB6622F1DB392A057ADB14B2CB99F315E2 ====
 
Об альбоме (сборнике)
 
Состав
Bells, Gong, Cowbell, Vocals, Horn [Tibetan], Whistle [Whistles], Waterphone, Edited By – Hartmut Geerken
Drums, Congas, Bells, Vocals – Famoudou Don Moye
Tenor Saxophone, Percussion, Vocals – John Tchicai
По всем вопросам пишите личное сообщение пользователю M0p94ok.
21:45
195
Нет комментариев. Ваш будет первым!