Поиск

( Free Jazz, Free Improvisation) Blue Notes - The Ogun Collection(Chris McGregor)(5cd) - 2008, APE (tracks+.cue)

Треклист:
Blue Notes - The Ogun Collection(Chris McGregor)(5cd)
Жанр: Free Jazz, Free Improvisation
Год выпуска диска: 2008
Аудио кодек: APE
Тип рипа: tracks+.cue
Продолжительность: 352m
Треклист:
CD1: Legacy - Live In South Afrika 1964
1.01 Now
1.02 Coming Home
1.03 I Cover The Waterfront
1.04 Two For Sandi
1.05 Vortex Special
1.06 B My Dear
1.07 Dorkay House
CD2: Blue Notes For Mongezi (Disc 1)
2.01 Blue Notes For Mongezi: First Movement
2.02 Blue Notes For Mongezi: Second Movement
CD3: Blue Notes For Mongezi (Disc 2)
3.01 Blue Notes For Mongezi: Third Movement
3.02 Blue Notes For Mongezi: Fourth Movement
CD4: Blue Notes In Concert
4.01.1 Iizwi
4.01.2 Msenge Mabelelo
4.02 Nqamakwwe
4.03.1 Manje
4.03.2 Funky Boots
4.04 We Nduna
4.05.1 Kudala [Long Ago]
4.05.2 Funky Boots
4.06.1 Mama Ndoluse
4.06.2 Abalimanga
CD5: Blue Notes For Johnny
5.01.1 Funk Dem Dudu
5.01.2 To Erico
5.02 Eyomzi
5.03 Ntylo Ntylo
5.04 Blues For Nick
5.05 Monks & Mbizo
5.06.1 Ithi Gqi
5.06.2 Nkosi Sikelele L'Afrika
5.07 Funk Dem Dudu
5.08 Eyomzi
5.09.1 Funk Dem Dudu
5.09.2 To Erico
Bass - Johnny Dyani (tracks: CD1-4)
Drums, Percussion - Louis Moholo
Piano - Chris McGregor
Saxophone [Alto, Soprano] - Dudu Pukwana
Saxophone [Tenor] - Nick Moyake (tracks: CD1)
Trumpet - Mongezi Feza (tracks: CD1)
CD1 (OGCD 024): Recorded live in Durban, South Afrika in 1964, prior to the departure of the Blue Notes to appear by invitation at the Juan-Les-Prins Jazz Festival.
Total Time - 72:50
CD2&3 (OGCD 025/026): Recorded on 23 December 1975 in a rehearsal room in London. It is the spontaneous tribute of four musicians who had assembled in London for the Memorial Service for their friend.
Total Time - 78:47/78:21
CD4 (OGCD 027): Recorded live at the 100 Club, 100 Oxford Street, London W1, on 16 April 1977 by Ron Barron. Some of this music was originally available on LP as OG 220 (Ogun, 1978), which was released in 1978.
Total Time - 59:12
CD5 (OGCD 028): Recorded at Redan Studios, London on 18 August 1987. Tracks 1-6 released on LP as OG 532 (Ogun, 1987). Tracks 7-9 are alternate takes and are previously unreleased.
Total Time - 65:27
Доп. информация: собственный рип
cd1

 
отчёт
[pre]Exact Audio Copy V0.99 prebeta 5 from 4. May 2009
Отчёт EAC об извлечении, выполненном 29. августа 2010, 19:47
Blue Notes / Legacy
Дисковод: MATSHITADVD-RAM UJ-850S Adapter: 2 ID: 0
Режим чтения : Достоверность
Использование точного потока : Да
Отключение кэша аудио : Да
Использование указателей C2 : Нет
Коррекция смещения при чтении : 102
Способность читать области Lead-in и Lead-out : Нет
Заполнение пропущенных сэмплов тишиной : Да
Удаление блоков с тишиной в начале и конце : Нет
При вычислениях CRC использовались нулевые сэмплы : Да
Интерфейс : Встроенный Win32-интерфейс для Win NT/2000
Обработка зазоров : Добавлено к предыдущему треку
Выходной формат : Monkey's Audio Lossless Encoder v3.99 DLL
Формат сэмплов : Normal Lossless Compression
TOC извлечённого CD
Трек | Старт | Длительность | Начальный сектор | Конечный сектор
---------------------------------------------------------------------
1 | 0:00.00 | 8:36.09 | 0 | 38708
2 | 8:36.09 | 9:08.18 | 38709 | 79826
3 | 17:44.27 | 9:22.61 | 79827 | 122037
4 | 27:07.13 | 10:32.24 | 122038 | 169461
5 | 37:39.37 | 12:08.00 | 169462 | 224061
6 | 49:47.37 | 9:10.07 | 224062 | 265318
7 | 58:57.44 | 13:52.55 | 265319 | 327773
Трек 1
Имя файла C:\eac\01 - Now.ape
Длина предзазора 0:00:02.00
Пиковый уровень 83.1 %
Качество трека 100.0 %
CRC копии 4D8CCA77
Точное извлечение (достоверность 2) [9DEF9B0B]
Копирование... OK
Трек 2
Имя файла C:\eac\02 - Coming Home.ape
Пиковый уровень 81.4 %
Качество трека 99.9 %
CRC копии 83CD6FBF
Точное извлечение (достоверность 2) [9824F614]
Копирование... OK
Трек 3
Имя файла C:\eac\03 - I Cover The Waterfront.ape
Пиковый уровень 84.4 %
Качество трека 100.0 %
CRC копии 9049113C
Точное извлечение (достоверность 2) [CE706DDB]
Копирование... OK
Трек 4
Имя файла C:\eac\04 - Two For Sandi.ape
Длина предзазора 0:00:00.02
Пиковый уровень 88.7 %
Качество трека 100.0 %
CRC копии FC5B1558
Точное извлечение (достоверность 2) [573072C1]
Копирование... OK
Трек 5
Имя файла C:\eac\05 - Vortex Special.ape
Пиковый уровень 64.5 %
Качество трека 100.0 %
CRC копии 668C6F30
Точное извлечение (достоверность 2) [3BE5511D]
Копирование... OK
Трек 6
Имя файла C:\eac\06 - B My Dear.ape
Пиковый уровень 77.2 %
Качество трека 100.0 %
CRC копии AF10D6EC
Точное извлечение (достоверность 2) [F0AF42B8]
Копирование... OK
Трек 7
Имя файла C:\eac\07 - Dorkay House.ape
Пиковый уровень 81.1 %
Качество трека 100.0 %
CRC копии AD0E3774
Точное извлечение (достоверность 2) [C56995A7]
Копирование... OK
Все треки извлечены точно
Ошибок не произошло
Конец отчёта
 
cue
REM GENRE "Free Improvisation"
REM DATE 1964
REM DISCID 6A111207
REM COMMENT "ExactAudioCopy v0.99pb5"
PERFORMER "Blue Notes"
TITLE "Legacy"
FILE "01 - Now.wav" WAVE
TRACK 01 AUDIO
TITLE "Now"
PERFORMER "Blue Notes"
INDEX 01 00:00:00
FILE "02 - Coming Home.wav" WAVE
TRACK 02 AUDIO
TITLE "Coming Home"
PERFORMER "Blue Notes"
INDEX 01 00:00:00
FILE "03 - I Cover The Waterfront.wav" WAVE
TRACK 03 AUDIO
TITLE "I Cover The Waterfront"
PERFORMER "Blue Notes"
INDEX 01 00:00:00
TRACK 04 AUDIO
TITLE "Two For Sandi"
PERFORMER "Blue Notes"
INDEX 00 09:22:59
FILE "04 - Two For Sandi.wav" WAVE
INDEX 01 00:00:00
FILE "05 - Vortex Special.wav" WAVE
TRACK 05 AUDIO
TITLE "Vortex Special"
PERFORMER "Blue Notes"
INDEX 01 00:00:00
FILE "06 - B My Dear.wav" WAVE
TRACK 06 AUDIO
TITLE "B My Dear"
PERFORMER "Blue Notes"
INDEX 01 00:00:00
FILE "07 - Dorkay House.wav" WAVE
TRACK 07 AUDIO
TITLE "Dorkay House"
PERFORMER "Blue Notes"
INDEX 01 00:00:00
cd2:
 
отчёт
Exact Audio Copy V0.99 prebeta 5 from 4. May 2009
Отчёт EAC об извлечении, выполненном 29. августа 2010, 20:53
Blue Notes / For Mongezi
Дисковод: MATSHITADVD-RAM UJ-850S Adapter: 2 ID: 0
Режим чтения : Достоверность
Использование точного потока : Да
Отключение кэша аудио : Да
Использование указателей C2 : Нет
Коррекция смещения при чтении : 102
Способность читать области Lead-in и Lead-out : Нет
Заполнение пропущенных сэмплов тишиной : Да
Удаление блоков с тишиной в начале и конце : Нет
При вычислениях CRC использовались нулевые сэмплы : Да
Интерфейс : Встроенный Win32-интерфейс для Win NT/2000
Обработка зазоров : Добавлено к предыдущему треку
Выходной формат : Monkey's Audio Lossless Encoder v3.99 DLL
Формат сэмплов : Normal Lossless Compression
TOC извлечённого CD
Трек | Старт | Длительность | Начальный сектор | Конечный сектор
---------------------------------------------------------------------
1 | 0:00.00 | 42:14.48 | 0 | 190097
2 | 42:14.48 | 36:32.07 | 190098 | 354504
Трек 1
Имя файла C:\eac\01 - Blue Notes For Mongezi- First Movement.ape
Длина предзазора 0:00:02.00
Пиковый уровень 98.8 %
Качество трека 99.9 %
CRC копии D3E74B8A
Точное извлечение (достоверность 2) [FE0BDC41]
Копирование... OK
Трек 2
Имя файла C:\eac\02 - Blue Notes For Mongezi- Second Movement.ape
Длина предзазора 0:00:00.16
Пиковый уровень 98.8 %
Качество трека 100.0 %
CRC копии 93608D57
Точное извлечение (достоверность 2) [EFD66757]
Копирование... OK
Все треки извлечены точно
Ошибок не произошло
 
cue
REM GENRE "Free Improvisation"
REM DATE 1975
REM DISCID 12127602
REM COMMENT "ExactAudioCopy v0.99pb5"
PERFORMER "Blue Notes"
TITLE "For Mongezi"
FILE "01 - Blue Notes For Mongezi- First Movement.wav" WAVE
TRACK 01 AUDIO
TITLE "Blue Notes For Mongezi: First Movement"
PERFORMER "Blue Notes"
INDEX 01 00:00:00
INDEX 02 10:34:15
INDEX 03 21:08:62
INDEX 04 26:26:18
INDEX 05 31:41:60
INDEX 06 33:02:65
TRACK 02 AUDIO
TITLE "Blue Notes For Mongezi: Second Movement"
PERFORMER "Blue Notes"
INDEX 00 42:14:32
FILE "02 - Blue Notes For Mongezi- Second Movement.wav" WAVE
INDEX 01 00:00:00
INDEX 02 09:08:56
INDEX 03 27:24:64
INDEX 04 32:01:17
cd3:
 
отчёт
Exact Audio Copy V0.99 prebeta 5 from 4. May 2009
Отчёт EAC об извлечении, выполненном 29. августа 2010, 22:14
Blue Notes / For Mongezi
Дисковод: MATSHITADVD-RAM UJ-850S Adapter: 2 ID: 0
Режим чтения : Достоверность
Использование точного потока : Да
Отключение кэша аудио : Да
Использование указателей C2 : Нет
Коррекция смещения при чтении : 102
Способность читать области Lead-in и Lead-out : Нет
Заполнение пропущенных сэмплов тишиной : Да
Удаление блоков с тишиной в начале и конце : Нет
При вычислениях CRC использовались нулевые сэмплы : Да
Интерфейс : Встроенный Win32-интерфейс для Win NT/2000
Обработка зазоров : Добавлено к предыдущему треку
Выходной формат : Monkey's Audio Lossless Encoder v3.99 DLL
Формат сэмплов : Normal Lossless Compression
TOC извлечённого CD
Трек | Старт | Длительность | Начальный сектор | Конечный сектор
---------------------------------------------------------------------
1 | 0:00.00 | 41:08.25 | 0 | 185124
2 | 41:08.25 | 37:12.25 | 185125 | 352549
Трек 1
Имя файла C:\eac\01 - Blue Notes For Mongezi- Third Movement.ape
Длина предзазора 0:00:02.00
Пиковый уровень 98.8 %
Качество трека 100.0 %
CRC копии B2973137
Точное извлечение (достоверность 2) [8BC04804]
Копирование... OK
Трек 2
Имя файла C:\eac\02 - Blue Notes For Mongezi- Fourth Movement.ape
Пиковый уровень 99.1 %
Качество трека 100.0 %
CRC копии BA2BF665
Точное извлечение (достоверность 2) [5297C91F]
Копирование... OK
Все треки извлечены точно
Ошибок не произошло
Конец отчёта
 
cue
REM GENRE "Free Improvisation"
REM DATE 1975
REM DISCID 0F125C02
REM COMMENT "ExactAudioCopy v0.99pb5"
PERFORMER "Blue Notes"
TITLE "For Mongezi"
FILE "01 - Blue Notes For Mongezi- Third Movement.wav" WAVE
TRACK 01 AUDIO
TITLE "Blue Notes For Mongezi: Third Movement"
PERFORMER "Blue Notes"
INDEX 01 00:00:00
INDEX 02 05:09:01
INDEX 03 20:34:28
FILE "02 - Blue Notes For Mongezi- Fourth Movement.wav" WAVE
TRACK 02 AUDIO
TITLE "Blue Notes For Mongezi: Fourth Movement"
PERFORMER "Blue Notes"
INDEX 01 00:00:00
INDEX 02 04:39:33
INDEX 03 18:36:08
INDEX 04 18:36:26
INDEX 05 19:28:57
cd4:
 
отчёт
Exact Audio Copy V0.99 prebeta 5 from 4. May 2009
Отчёт EAC об извлечении, выполненном 29. августа 2010, 23:13
Blue Notes / In Concert
Дисковод: MATSHITADVD-RAM UJ-850S Adapter: 2 ID: 0
Режим чтения : Достоверность
Использование точного потока : Да
Отключение кэша аудио : Да
Использование указателей C2 : Нет
Коррекция смещения при чтении : 102
Способность читать области Lead-in и Lead-out : Нет
Заполнение пропущенных сэмплов тишиной : Да
Удаление блоков с тишиной в начале и конце : Нет
При вычислениях CRC использовались нулевые сэмплы : Да
Интерфейс : Встроенный Win32-интерфейс для Win NT/2000
Обработка зазоров : Добавлено к предыдущему треку
Выходной формат : Monkey's Audio Lossless Encoder v3.99 DLL
Формат сэмплов : Normal Lossless Compression
TOC извлечённого CD
Трек | Старт | Длительность | Начальный сектор | Конечный сектор
---------------------------------------------------------------------
1 | 0:00.00 | 12:35.60 | 0 | 56684
2 | 12:35.60 | 5:44.24 | 56685 | 82508
3 | 18:20.09 | 13:45.61 | 82509 | 144444
4 | 32:05.70 | 10:39.06 | 144445 | 192375
5 | 42:45.01 | 10:36.63 | 192376 | 240138
6 | 53:21.64 | 5:49.36 | 240139 | 266349
Трек 1
Имя файла C:\eac\01 - lizwi - Msenge Mabelelo.ape
Длина предзазора 0:00:02.00
Пиковый уровень 98.8 %
Качество трека 100.0 %
CRC копии 25DFDCD2
Точное извлечение (достоверность 1) [E781D056]
Копирование... OK
Трек 2
Имя файла C:\eac\02 - Nqamakwe.ape
Длина предзазора 0:00:00.03
Пиковый уровень 98.8 %
Качество трека 99.9 %
CRC копии 095BED3E
Точное извлечение (достоверность 1) [57996DE0]
Копирование... OK
Трек 3
Имя файла C:\eac\03 - Manje - Funky Boots.ape
Длина предзазора 0:00:02.00
Пиковый уровень 98.8 %
Качество трека 99.9 %
CRC копии 5BF066CD
Точное извлечение (достоверность 1) [F174A9AE]
Копирование... OK
Трек 4
Имя файла C:\eac\04 - We Nduna.ape
Длина предзазора 0:00:00.14
Пиковый уровень 98.7 %
Качество трека 100.0 %
CRC копии A42B8D3D
Точное извлечение (достоверность 1) [BE76D951]
Копирование... OK
Трек 5
Имя файла C:\eac\05 - Kudala (Long Ago) - Funky Boots.ape
Длина предзазора 0:00:18.16
Пиковый уровень 98.8 %
Качество трека 100.0 %
CRC копии C946700D
Точное извлечение (достоверность 1) [9ADDB380]
Копирование... OK
Трек 6
Имя файла C:\eac\06 - Mama Ndoluse - Abalimanga.ape
Длина предзазора 0:00:37.70
Пиковый уровень 98.8 %
Качество трека 100.0 %
CRC копии 191DCA70
Точное извлечение (достоверность 1) [34DB755F]
Копирование... OK
Все треки извлечены точно
Ошибок не произошло
Конец отчёта
 
cue
REM GENRE "Free Improvisation"
REM DATE 1977
REM DISCID 480DDF06
REM COMMENT "ExactAudioCopy v0.99pb5"
PERFORMER "Blue Notes"
TITLE "In Concert"
FILE "01 - lizwi - Msenge Mabelelo.wav" WAVE
TRACK 01 AUDIO
TITLE "lizwi - Msenge Mabelelo"
PERFORMER "Blue Notes"
INDEX 01 00:00:00
INDEX 02 06:19:62
TRACK 02 AUDIO
TITLE "Nqamakwe"
PERFORMER "Blue Notes"
INDEX 00 12:35:57
FILE "02 - Nqamakwe.wav" WAVE
INDEX 01 00:00:00
TRACK 03 AUDIO
TITLE "Manje - Funky Boots"
PERFORMER "Blue Notes"
INDEX 00 05:42:24
FILE "03 - Manje - Funky Boots.wav" WAVE
INDEX 01 00:00:00
INDEX 02 13:23:47
TRACK 04 AUDIO
TITLE "We Nduna"
PERFORMER "Blue Notes"
INDEX 00 13:45:47
FILE "04 - We Nduna.wav" WAVE
INDEX 01 00:00:00
TRACK 05 AUDIO
TITLE "Kudala (Long Ago) - Funky Boots"
PERFORMER "Blue Notes"
INDEX 00 10:20:65
FILE "05 - Kudala (Long Ago) - Funky Boots.wav" WAVE
INDEX 01 00:00:00
INDEX 02 09:18:57
TRACK 06 AUDIO
TITLE "Mama Ndoluse - Abalimanga"
PERFORMER "Blue Notes"
INDEX 00 09:58:68
FILE "06 - Mama Ndoluse - Abalimanga.wav" WAVE
INDEX 01 00:00:00
INDEX 02 02:56:35
cd5:
 
отчёт
Exact Audio Copy V0.99 prebeta 5 from 4. May 2009
Отчёт EAC об извлечении, выполненном 30. августа 2010, 0:33
Blue Notes / For Johnny
Дисковод: MATSHITADVD-RAM UJ-850S Adapter: 2 ID: 0
Режим чтения : Достоверность
Использование точного потока : Да
Отключение кэша аудио : Да
Использование указателей C2 : Нет
Коррекция смещения при чтении : 102
Способность читать области Lead-in и Lead-out : Нет
Заполнение пропущенных сэмплов тишиной : Да
Удаление блоков с тишиной в начале и конце : Нет
При вычислениях CRC использовались нулевые сэмплы : Да
Интерфейс : Встроенный Win32-интерфейс для Win NT/2000
Обработка зазоров : Добавлено к предыдущему треку
Выходной формат : Monkey's Audio Lossless Encoder v3.99 DLL
Формат сэмплов : Normal Lossless Compression
TOC извлечённого CD
Трек | Старт | Длительность | Начальный сектор | Конечный сектор
---------------------------------------------------------------------
1 | 0:00.00 | 10:00.50 | 0 | 45049
2 | 10:00.50 | 4:53.38 | 45050 | 67062
3 | 14:54.13 | 7:55.34 | 67063 | 102721
4 | 22:49.47 | 4:41.15 | 102722 | 123811
5 | 27:30.62 | 9:51.22 | 123812 | 168158
6 | 37:22.09 | 8:40.50 | 168159 | 207208
7 | 46:02.59 | 5:34.23 | 207209 | 232281
8 | 51:37.07 | 5:05.27 | 232282 | 255183
9 | 56:42.34 | 8:44.13 | 255184 | 294496
Трек 1
Имя файла C:\eac\01 - Funk Dem Dudu - To Erico.ape
Длина предзазора 0:00:02.00
Пиковый уровень 86.6 %
Качество трека 99.9 %
CRC копии D27B0AC7
Точное извлечение (достоверность 2) [F25B0A75]
Копирование... OK
Трек 2
Имя файла C:\eac\02 - Eyomzi.ape
Длина предзазора 0:00:00.14
Пиковый уровень 100.0 %
Качество трека 99.9 %
CRC копии 381555FD
Точное извлечение (достоверность 2) [F73B5F4A]
Копирование... OK
Трек 3
Имя файла C:\eac\03 - Ntyilo Ntyilo.ape
Пиковый уровень 71.1 %
Качество трека 100.0 %
CRC копии F0A686AB
Точное извлечение (достоверность 2) [213B7A32]
Копирование... OK
Трек 4
Имя файла C:\eac\04 - Blues For Nick.ape
Пиковый уровень 94.1 %
Качество трека 100.0 %
CRC копии 0B6283A0
Точное извлечение (достоверность 2) [5A209674]
Копирование... OK
Трек 5
Имя файла C:\eac\05 - Monks & Mbizo.ape
Длина предзазора 0:00:02.00
Пиковый уровень 99.9 %
Качество трека 100.0 %
CRC копии BA6C1E57
Точное извлечение (достоверность 2) [AEC67D62]
Копирование... OK
Трек 6
Имя файла C:\eac\06 - Ithi Ggi - Nkosi Sikelele L'Afrika.ape
Пиковый уровень 100.0 %
Качество трека 99.9 %
CRC копии C3199991
Точное извлечение (достоверность 2) [F5C90025]
Копирование... OK
Трек 7
Имя файла C:\eac\07 - Funk Dem Dudu.ape
Длина предзазора 0:00:06.54
Пиковый уровень 68.2 %
Качество трека 100.0 %
CRC копии 6651B677
Точное извлечение (достоверность 2) [43107AF9]
Копирование... OK
Трек 8
Имя файла C:\eac\08 - Eyomzi.ape
Длина предзазора 0:00:03.20
Пиковый уровень 96.0 %
Качество трека 100.0 %
CRC копии A5752044
Точное извлечение (достоверность 2) [FF9AC688]
Копирование... OK
Трек 9
Имя файла C:\eac\09 - Funk Dem Dudud - To Erico.ape
Длина предзазора 0:00:02.54
Пиковый уровень 92.8 %
Качество трека 100.0 %
CRC копии 028D0627
Точное извлечение (достоверность 2) [CF2D3DC4]
Копирование... OK
Все треки извлечены точно
Ошибок не произошло
Конец отчёта
 
cue
REM GENRE "Free Improvisation"
REM DATE 1987
REM DISCID 7A0F5609
REM COMMENT "ExactAudioCopy v0.99pb5"
PERFORMER "Blue Notes"
TITLE "For Johnny"
FILE "01 - Funk Dem Dudu - To Erico.wav" WAVE
TRACK 01 AUDIO
TITLE "Funk Dem Dudu - To Erico"
PERFORMER "Blue Notes"
INDEX 01 00:00:00
TRACK 02 AUDIO
TITLE "Eyomzi"
PERFORMER "Blue Notes"
INDEX 00 10:00:36
FILE "02 - Eyomzi.wav" WAVE
INDEX 01 00:00:00
FILE "03 - Ntyilo Ntyilo.wav" WAVE
TRACK 03 AUDIO
TITLE "Ntyilo Ntyilo"
PERFORMER "Blue Notes"
INDEX 01 00:00:00
FILE "04 - Blues For Nick.wav" WAVE
TRACK 04 AUDIO
TITLE "Blues For Nick"
PERFORMER "Blue Notes"
INDEX 01 00:00:00
TRACK 05 AUDIO
TITLE "Monks & Mbizo"
PERFORMER "Blue Notes"
INDEX 00 04:39:15
FILE "05 - Monks & Mbizo.wav" WAVE
INDEX 01 00:00:00
FILE "06 - Ithi Ggi - Nkosi Sikelele L'Afrika.wav" WAVE
TRACK 06 AUDIO
TITLE "Ithi Ggi - Nkosi Sikelele L'Afrika"
PERFORMER "Blue Notes"
INDEX 01 00:00:00
TRACK 07 AUDIO
TITLE "Funk Dem Dudu"
PERFORMER "Blue Notes"
INDEX 00 08:33:71
FILE "07 - Funk Dem Dudu.wav" WAVE
INDEX 01 00:00:00
TRACK 08 AUDIO
TITLE "Eyomzi"
PERFORMER "Blue Notes"
INDEX 00 05:31:03
FILE "08 - Eyomzi.wav" WAVE
INDEX 01 00:00:00
TRACK 09 AUDIO
TITLE "Funk Dem Dudud - To Erico"
PERFORMER "Blue Notes"
INDEX 00 05:02:48
FILE "09 - Funk Dem Dudud - To Erico.wav" WAVE
INDEX 01 00:00:00
INDEX 02 07:46:36
17:38
308
Нет комментариев. Ваш будет первым!