Вы используете незарегистрированную версию компонента "Вкладки"!

Поиск

(Free Jazz, Free Improvisation, Big Band) Globe Unity - Compositions - 2000, FLAC (tracks+.cue) lossless

Треклист:
Globe Unity - Compositions
Жанр: Free Jazz, Free Improvisation, Big Band
Страна-производитель диска: Japan
Год издания диска: 2000
Издатель (лейбл): Universal - JAPO / ECM Records
Номер по каталогу: UCCE-9072 - JAPO 60027 2360 027
Страна: Japan - Germany
Аудио кодек: FLAC (*.flac)
Тип рипа: tracks+.cue
Битрейт аудио: lossless
Продолжительность: 50:16
Источник (релизер): собственный рип с оригинального диска.
Наличие сканов в содержимом раздачи: да
Треклист:
01. Nodagoo (6:59)
02. Boa (5:43)
03. Trom-Bone-It (5:03)
04. Flat Fleet (7:48)
05. Reflections (8:46)
06. Worms (dedicated to Ezra Pound) (10:25)
07. The Forge (5:22)
 
Лог создания рипа
Exact Audio Copy V0.99 prebeta 5 from 4. May 2009
EAC extraction logfile from 30. January 2011, 22:44
Globe Unity / Compositions
Used drive : TSSTcorpCDDVDW SH-S222A Adapter: 1 ID: 0
Read mode : Secure
Utilize accurate stream : Yes
Defeat audio cache : Yes
Make use of C2 pointers : No
Read offset correction : 6
Overread into Lead-In and Lead-Out : No
Fill up missing offset samples with silence : Yes
Delete leading and trailing silent blocks : No
Null samples used in CRC calculations : Yes
Used interface : Installed external ASPI interface
Gap handling : Appended to previous track
Used output format : User Defined Encoder
Selected bitrate : 768 kBit/s
Quality : High
Add ID3 tag : No
Command line compressor : C:\Tool\Compress\FLAC\flac.exe
Additional command line options : -V -8 -T "ARTIST=%a" -T "TITLE=%t" -T "ALBUM=%g" -T "TRACKNUMBER=%n" -T "GENRE=%m" %s
TOC of the extracted CD
Track | Start | Length | Start sector | End sector
---------------------------------------------------------
1 | 0:00.00 | 7:00.62 | 0 | 31561
2 | 7:00.62 | 5:45.68 | 31562 | 57504
3 | 12:46.55 | 5:04.27 | 57505 | 80331
4 | 17:51.07 | 7:51.45 | 80332 | 115701
5 | 25:42.52 | 8:45.60 | 115702 | 155136
6 | 34:28.37 | 10:23.40 | 155137 | 201901
7 | 44:52.02 | 5:23.73 | 201902 | 226199
Track 1
Filename C:\! RUTRACKER\ru up\Globe Unity - Compositions (1979) [FLAC]\01 - Nodagoo.wav
Pre-gap length 0:00:02.00
Peak level 91.1 %
Track quality 100.0 %
Test CRC 2F6A8420
Copy CRC 2F6A8420
Accurately ripped (confidence 1) [A7B5B3AD]
Copy OK
Track 2
Filename C:\! RUTRACKER\ru up\Globe Unity - Compositions (1979) [FLAC]\02 - Boa.wav
Pre-gap length 0:00:01.82
Peak level 99.4 %
Track quality 100.0 %
Test CRC 6BED4A92
Copy CRC 6BED4A92
Accurately ripped (confidence 1) [80B17CDA]
Copy OK
Track 3
Filename C:\! RUTRACKER\ru up\Globe Unity - Compositions (1979) [FLAC]\03 - Trom-bone-it.wav
Pre-gap length 0:00:01.73
Peak level 80.3 %
Track quality 100.0 %
Test CRC 43248E7E
Copy CRC 43248E7E
Accurately ripped (confidence 1) [F4CDEC05]
Copy OK
Track 4
Filename C:\! RUTRACKER\ru up\Globe Unity - Compositions (1979) [FLAC]\04 - Flat Fleet.wav
Pre-gap length 0:00:01.42
Peak level 80.8 %
Track quality 100.0 %
Test CRC FAAF5199
Copy CRC FAAF5199
Accurately ripped (confidence 1) [3ED3C4CC]
Copy OK
Track 5
Filename C:\! RUTRACKER\ru up\Globe Unity - Compositions (1979) [FLAC]\05 - Reflections.wav
Pre-gap length 0:00:03.73
Peak level 99.8 %
Track quality 100.0 %
Test CRC 8083876C
Copy CRC 8083876C
Accurately ripped (confidence 1) [427F7E65]
Copy OK
Track 6
Filename C:\! RUTRACKER\ru up\Globe Unity - Compositions (1979) [FLAC]\06 - Worms.wav
Peak level 88.1 %
Track quality 100.0 %
Test CRC A172C125
Copy CRC A172C125
Accurately ripped (confidence 1) [F3022EBB]
Copy OK
Track 7
Filename C:\! RUTRACKER\ru up\Globe Unity - Compositions (1979) [FLAC]\07 - The Forge.wav
Peak level 97.1 %
Track quality 100.0 %
Test CRC F16D797A
Copy CRC F16D797A
Accurately ripped (confidence 1) [13423373]
Copy OK
All tracks accurately ripped
No errors occurred
End of status report
 
Содержание индексной карты (.CUE)
REM GENRE Avantgarde
REM DATE 1979
REM DISCID 560BC807
REM COMMENT "ExactAudioCopy v0.99pb5"
CATALOG 4988005424297
PERFORMER "Globe Unity"
TITLE "Compositions"
FILE "01 - Nodagoo.wav" WAVE
TRACK 01 AUDIO
TITLE "Nodagoo"
PERFORMER "Globe Unity"
ISRC 000000000000
INDEX 01 00:00:00
TRACK 02 AUDIO
TITLE "Boa"
PERFORMER "Globe Unity"
ISRC 000000000000
INDEX 00 06:59:00
FILE "02 - Boa.wav" WAVE
INDEX 01 00:00:00
TRACK 03 AUDIO
TITLE "Trom-bone-it"
PERFORMER "Globe Unity"
ISRC 000000000000
INDEX 00 05:44:13
FILE "03 - Trom-bone-it.wav" WAVE
INDEX 01 00:00:00
TRACK 04 AUDIO
TITLE "Flat Fleet"
PERFORMER "Globe Unity"
ISRC 000000000000
INDEX 00 05:02:70
FILE "04 - Flat Fleet.wav" WAVE
INDEX 01 00:00:00
TRACK 05 AUDIO
TITLE "Reflections"
PERFORMER "Globe Unity"
ISRC 000000000000
INDEX 00 07:47:65
FILE "05 - Reflections.wav" WAVE
INDEX 01 00:00:00
FILE "06 - Worms.wav" WAVE
TRACK 06 AUDIO
TITLE "Worms"
PERFORMER "Globe Unity"
ISRC 000000000000
INDEX 01 00:00:00
FILE "07 - The Forge.wav" WAVE
TRACK 07 AUDIO
TITLE "The Forge"
PERFORMER "Globe Unity"
ISRC 000000000000
INDEX 01 00:00:00
Доп. информация:
Recorded January 1979 at Tonstudio Bauer, Ludwigsburg
 
Об исполнителе (группе)
 
Состав
Enrico Rava - trumpet
Kenny Wheeler - trumpet, flugelhorn
Manfred Schoof - trumpet, flugelhorn
Albert Mangelsdorff - trombone
Günther Christmann - trombone
Paul Rutherford - trombone, euphonium
Steve Lacy - soprano saxophone (piano interior on »Worms«)
Evan Parker - tenor saxophone, soprano saxophone
Gerd Dudek - tenor saxophone, soprano saxophone, flute
Michel Pilz - bass clarinet
Alexander von Schlippenbach - piano
Bob Stewart - tuba
Buschi Niebergall - bass
Paul Lovens - drums, percussion, etc...
Any questions -> support@pro-jazz.com. По всем вопросам пишите -> support@pro-jazz.com
08:31
118
Нет комментариев. Ваш будет первым!