Вы используете незарегистрированную версию компонента "Вкладки"!

Поиск

(Free Jazz, Free Improvisation) Barry Guy - Fizzles - 1991, FLAC (tracks) lossless

Треклист:
Barry Guy / Fizzles
Жанр: Free Jazz, Free Improvisation
Год издания диска: 1991
Издатель (лейбл): Maya Recordings
Номер по каталогу: MCD9301
Страна: Великобритания
Аудио кодек: FLAC (*.flac)
Тип рипа: tracks
Битрейт аудио: lossless
Продолжительность: 1:10:26
Источник (релизер): soulseek (marcin_k123)
Наличие сканов в содержимом раздачи: нет
Треклист:
1 Free Fall 6:36
2 Fil Rouge 2:38
3 Hilibili Meets..the Brush 10:48
4 Five Fizzles 10:45
5 Invention/The Bird of Infinity 8:23
6 Afar 2:54
7 ...But the Clouds... 5:58
8 Tout Rouge 3:03
9 Still 8:12
10 Toujours Rouge 1:50
11 She Took the Sacred Rattle and Used It 9:14
 
Лог создания рипа
dBpoweramp Release 13.2 Digital Audio Extraction Log from 6 lipca 2010 8:29
Drive & Settings
----------------
Ripping with drive 'E: [TSSTcorp - CDDVDW SH-S223C ]', Drive offset: 697, Overread Lead-in/out: No
AccurateRip: Active, Using C2: Yes, Cache: 1024 KB, FUA Cache Invalidate: No
Pass 1 Drive Speed: Max, Pass 2 Drive Speed: 8
Ultra:: Vary Drive Speed: No, Min Passes: 3, Max Passes: 6, Finish After Clean Passes: 2
Bad Sector Re-rip:: Drive Speed: Max, Maximum Re-reads: 34
Encoder: FLAC -compression-level-5 -verify
Extraction Log
--------------
Track 1: Ripped LBA 32 to 29760 (6:36) in 1:33. Filename: D:\FLAC\Barry Guy\Fizzles\Barry Guy - 01 - Free Fall.flac
Secure [Pass 1, Ultra 1 to 3]
CRC32: 82DDE1A5 AccurateRip CRC: 1844BDC9 [DiscID: 011-001e18b0-01025ad5-a410820b-1]
Track 2: Ripped LBA 29760 to 41610 (2:38) in 0:29. Filename: D:\FLAC\Barry Guy\Fizzles\Barry Guy - 02 - Fil Rouge.flac
Secure [Pass 1, Ultra 1 to 3]
CRC32: 5DB0C3EC AccurateRip CRC: 026ADCF1 [DiscID: 011-001e18b0-01025ad5-a410820b-2]
Track 3: Ripped LBA 41610 to 90230 (10:48) in 1:46. Filename: D:\FLAC\Barry Guy\Fizzles\Barry Guy - 03 - Hilibili Meets..the Brush.flac
Secure [Pass 1, Ultra 1 to 3]
CRC32: E2D25117 AccurateRip CRC: CBB34207 [DiscID: 011-001e18b0-01025ad5-a410820b-3]
Track 4: Ripped LBA 90230 to 138677 (10:45) in 1:30. Filename: D:\FLAC\Barry Guy\Fizzles\Barry Guy - 04 - Five Fizzles.flac
Secure [Pass 1, Ultra 1 to 3]
CRC32: 48EDA1B1 AccurateRip CRC: B286BFE2 [DiscID: 011-001e18b0-01025ad5-a410820b-4]
Track 5: Ripped LBA 138677 to 176452 (8:23) in 1:03. Filename: D:\FLAC\Barry Guy\Fizzles\Barry Guy - 05 - Invention-The Bird of Infinity.flac
Secure [Pass 1, Ultra 1 to 3]
CRC32: 75DF1D73 AccurateRip CRC: 43E60CB4 [DiscID: 011-001e18b0-01025ad5-a410820b-5]
Track 6: Ripped LBA 176452 to 189545 (2:54) in 0:21. Filename: D:\FLAC\Barry Guy\Fizzles\Barry Guy - 06 - Afar.flac
Secure [Pass 1, Ultra 1 to 3]
CRC32: 0FA60141 AccurateRip CRC: FDC86D51 [DiscID: 011-001e18b0-01025ad5-a410820b-6]
Track 7: Ripped LBA 189545 to 216420 (5:58) in 0:41. Filename: D:\FLAC\Barry Guy\Fizzles\Barry Guy - 07 - ...But the Clouds....flac
Secure [Pass 1, Ultra 1 to 3]
CRC32: A22183AA AccurateRip CRC: 0DBFA78D [DiscID: 011-001e18b0-01025ad5-a410820b-7]
Track 8: Ripped LBA 216420 to 230165 (3:03) in 0:20. Filename: D:\FLAC\Barry Guy\Fizzles\Barry Guy - 08 - Tout Rouge.flac
Secure [Pass 1, Ultra 1 to 3]
CRC32: FB3847F0 AccurateRip CRC: 9996E4A6 [DiscID: 011-001e18b0-01025ad5-a410820b-8]
Track 9: Ripped LBA 230165 to 267117 (8:12) in 0:52. Filename: D:\FLAC\Barry Guy\Fizzles\Barry Guy - 09 - Still.flac
Secure [Pass 1, Ultra 1 to 3]
CRC32: AA5417C5 AccurateRip CRC: 3AB0F803 [DiscID: 011-001e18b0-01025ad5-a410820b-9]
Track 10: Ripped LBA 267117 to 275392 (1:50) in 0:11. Filename: D:\FLAC\Barry Guy\Fizzles\Barry Guy - 10 - Toujours Rouge.flac
Secure [Pass 1, Ultra 1 to 3]
CRC32: 16C6104D AccurateRip CRC: D36662D0 [DiscID: 011-001e18b0-01025ad5-a410820b-10]
Track 11: Ripped LBA 275392 to 317000 (9:14) in 0:55. Filename: D:\FLAC\Barry Guy\Fizzles\Barry Guy - 11 - She Took the Sacred Rattle and Used It.flac
Secure [Pass 1, Ultra 1 to 3]
CRC32: 1371D73D AccurateRip CRC: E04C7B84 [DiscID: 011-001e18b0-01025ad5-a410820b-11]
--------------
11 Tracks Ripped Securely
 
Лог проверки качества
AUDIOCHECKER v2.0 beta (build 457) - by Dester - opdester@freemail.hu
~~~~~~~~~~~~~~~~~~~~~~~~~~~~~~~~~~
-=== DO NOT EDIT THIS FILE! ===-
Path: ...\fizzles
01 -=- Barry Guy - 01 - Free Fall.flac -=- CDDA (100%)
02 -=- Barry Guy - 02 - Fil Rouge.flac -=- CDDA (100%)
03 -=- Barry Guy - 03 - Hilibili Meets..the Brush.flac -=- CDDA (100%)
04 -=- Barry Guy - 04 - Five Fizzles.flac -=- CDDA (100%)
05 -=- Barry Guy - 05 - Invention-The Bird of Infinity.flac -=- CDDA (100%)
06 -=- Barry Guy - 06 - Afar.flac -=- CDDA (99%)
07 -=- Barry Guy - 07 - ...But the Clouds....flac -=- CDDA (100%)
08 -=- Barry Guy - 08 - Tout Rouge.flac -=- CDDA (100%)
09 -=- Barry Guy - 09 - Still.flac -=- CDDA (99%)
10 -=- Barry Guy - 10 - Toujours Rouge.flac -=- CDDA (100%)
11 -=- Barry Guy - 11 - She Took the Sacred Rattle and Used It.flac -=- CDDA (100%)
Summary 99,82% CDDA
93217636
 
Состав
Barry Guy – bass & piccolo bass
Any questions -> support@pro-jazz.com. По всем вопросам пишите -> support@pro-jazz.com
03:22
158
Нет комментариев. Ваш будет первым!