Вы используете незарегистрированную версию компонента "Вкладки"!

Поиск

(Free Jazz, Free Improvisation) Barry Guy & The London Jazz Composers' Orchestra with Irène Schweizer, Marilyn Crispell, Pierre Favre - Double Trouble Two - 1996, FLAC (tracks+.cue), lossless

Треклист:
Barry Guy & The London Jazz Composers' Orchestra - Double Trouble Two
with Irène Schweizer, Marilyn Crispell, Pierre Favre
Жанр: Free Jazz, Free Improvisation
Год выпуска диска: 1996
Производитель диска: Intakt Records (Intakt CD 053)
Источник: soulseek
Аудио кодек: FLAC
Тип рипа: tracks+.cue
Битрейт аудио: lossless
Продолжительность: 47:25
Трэклист:
Part I 8:09
Part II 8:38
Part III 10:10
Part IV 16:52
Part V 3:53
Barry Guy bass, director, composer
Henry Lowther trumpet
Marc Charig cornet
Jon Corbett trumpet
Paul Rutherford trombone
Alan Tomlinson trombone
Chris Bridgestrombone
Robin Hayward tuba
Trevor Watts reeds
Evan Parker reeds
Simon Picard reeds
Peter McPhail reeds
Paul Dunmall reeds
Phil Wachsmann violin
Irène Schweizer piano
Marilyn Crispell piano
Barre Phillips bass
Pierre Favre drums
Paul Lytton drums
 
Отчёт EAC
EAC extraction logfile from 22. October 2008, 21:45 for CD
London Jazz Composers' Orchestra / Double Trouble Two
Used drive : PBDS CDRWDVD DH-48C2S Adapter: 1 ID: 1
Read mode : Secure with NO C2, accurate stream, disable cache
Read offset correction : 6
Overread into Lead-In and Lead-Out : No
Used output format : C:\Program Files\FLAC\flac.exe (User Defined Encoder)
128 kBit/s
Additional command line options : -V -8 -T "artist=%a" -T "title=%t" -T "album=%g" -T "date=%y" -T "tracknumber=%n" -T "genre=%m" %s
Other options :
Fill up missing offset samples with silence : Yes
Delete leading and trailing silent blocks : No
Native Win32 interface for Win NT & 2000
Track 1
Filename D:\DOWNLOADS\_UPLOADS\London Jazz Composers' Orchestra - Double Trouble Two (1996) [FLAC]\01 - Part I.wav
Pre-gap length 0:00:02.00
Peak level 92.6 %
Track quality 100.0 %
Test CRC 34EE534B
Copy CRC 34EE534B
Copy OK
Track 2
Filename D:\DOWNLOADS\_UPLOADS\London Jazz Composers' Orchestra - Double Trouble Two (1996) [FLAC]\02 - Part II.wav
Peak level 92.4 %
Track quality 99.9 %
Test CRC D00A0CF1
Copy CRC D00A0CF1
Copy OK
Track 3
Filename D:\DOWNLOADS\_UPLOADS\London Jazz Composers' Orchestra - Double Trouble Two (1996) [FLAC]\03 - Part III.wav
Pre-gap length 0:00:00.01
Peak level 100.0 %
Track quality 99.9 %
Test CRC 34665F0A
Copy CRC 34665F0A
Copy OK
Track 4
Filename D:\DOWNLOADS\_UPLOADS\London Jazz Composers' Orchestra - Double Trouble Two (1996) [FLAC]\04 - Part IV.wav
Peak level 100.0 %
Track quality 100.0 %
Test CRC D6A04802
Copy CRC D6A04802
Copy OK
Track 5
Filename D:\DOWNLOADS\_UPLOADS\London Jazz Composers' Orchestra - Double Trouble Two (1996) [FLAC]\05 - Part V.wav
Peak level 92.3 %
Track quality 99.9 %
Test CRC 2A8AAF28
Copy CRC 2A8AAF28
Copy OK
No errors occured
End of status report
 
Отчёт Audiocheckera
AUDIOCHECKER v2.0 beta (build 457) - by Dester - opdester@freemail.hu
~~~~~~~~~~~~~~~~~~~~~~~~~~~~~~~~~~
-=== DO NOT EDIT THIS FILE! ===-
Path: ...\london jazz composers' orchestra - double trouble two (1996)
1 -=- 01 - Part I.flac -=- CDDA (100%)
2 -=- 02 - Part II.flac -=- CDDA (100%)
3 -=- 03 - Part III.flac -=- CDDA (100%)
4 -=- 04 - Part IV.flac -=- CDDA (100%)
5 -=- 05 - Part V.flac -=- CDDA (100%)
Summary 100,00% CDDA
182840196
 
cue
REM GENRE Jazz
REM DATE 1996
REM DISCID 370B1D05
REM COMMENT "ExactAudioCopy v0.95b3"
PERFORMER "London Jazz Composers' Orchestra"
TITLE "Double Trouble Two"
FILE "London Jazz Composers' Orchestra - Double Trouble Two (1996) [FLAC]\01 - Part I.wav" WAVE
TRACK 01 AUDIO
TITLE "Part I"
PERFORMER "London Jazz Composers' Orchestra"
INDEX 01 00:00:00
FILE "London Jazz Composers' Orchestra - Double Trouble Two (1996) [FLAC]\02 - Part II.wav" WAVE
TRACK 02 AUDIO
TITLE "Part II"
PERFORMER "London Jazz Composers' Orchestra"
INDEX 01 00:00:00
TRACK 03 AUDIO
TITLE "Part III"
PERFORMER "London Jazz Composers' Orchestra"
INDEX 00 08:38:24
FILE "London Jazz Composers' Orchestra - Double Trouble Two (1996) [FLAC]\03 - Part III.wav" WAVE
INDEX 01 00:00:00
FILE "London Jazz Composers' Orchestra - Double Trouble Two (1996) [FLAC]\04 - Part IV.wav" WAVE
TRACK 04 AUDIO
TITLE "Part IV"
PERFORMER "London Jazz Composers' Orchestra"
INDEX 01 00:00:00
FILE "London Jazz Composers' Orchestra - Double Trouble Two (1996) [FLAC]\05 - Part V.wav" WAVE
TRACK 05 AUDIO
TITLE "Part V"
PERFORMER "London Jazz Composers' Orchestra"
INDEX 01 00:00:00
По всем вопросам пишите личное сообщение пользователю M0p94ok.
23:32
147
Нет комментариев. Ваш будет первым!