Вы используете незарегистрированную версию компонента "Вкладки"!

Поиск

(Free Jazz, Free Improvisation, Avant-Garde Jazz) Full Blast (Peter Brotzmann, Marino Pliakas, Michael Wertmuller) - Live at Tampere - 2009, FLAC (tracks+.cue), lossless

Треклист:
Full Blast (Peter Brötzmann, Marino Pliakas, Michael Wertmüller) - Live at Tampere
Жанр: Free Jazz, Free Improvisation, Avant-Garde Jazz
Год выпуска диска: 2009
Производитель диска: Atavistic ALP195CD
Аудио кодек: FLAC
Тип рипа: tracks+.cue
Битрейт аудио: lossless
Продолжительность: 42:08
Трэклист:
1. Part 01 (05.24)
2. Part 02 (02.04)
3. Part 03 (09.46)
4. Part 04 (03.17)
5. Part 05 (02.35)
6. Part 06 (06.18)
7. Part 07 (12.42)
Full Blast:
Peter Brötzmann, alto saxophone, tenor saxophone, b-flat clarinet, tarogato;
Marino Pliakas, electric bass;
Michael Wertmüller, drums.
The first 1,000 copies came with a complementary second CD Live at Tampere:
Recorded on 5 November 2005 at the Tampere Jazz Happening, Tampere, Finland.
Cover artwork and design (reproduced above) by Broetzm.
 
XLD extraction logfile:
X Lossless Decoder version 20080926 (93.3)
XLD extraction logfile from 2009-01-30 19:10:24 -0800
Peter BroМ€tzmann, Marino Pliakas, Michael WertmuМ€ller / Full Blast/Live at Tampere
Used drive : MATSHITA DVD-R UJ-85J (revision FCQ5)
Use cdparanoia mode : YES (CDParanoia III 10.2 engine)
Disable audio cache : OK for the drive with cache less than 2750KB
Make use of C2 pointers : NO
Read offset correction : 102
Max retry count : 100
TOC of the extracted CD
Track | Start | Length | Start sector | End sector
---------------------------------------------------------
1 | 00:00:00 | 05:24:15 | 0 | 24314
2 | 05:24:15 | 02:04:17 | 24315 | 33631
3 | 07:28:32 | 09:46:42 | 33632 | 77623
4 | 17:14:74 | 03:17:38 | 77624 | 92436
5 | 20:32:37 | 02:35:05 | 92437 | 104066
6 | 23:07:42 | 06:18:22 | 104067 | 132438
7 | 29:25:64 | 12:42:40 | 132439 | 189628
Track 01
Filename : /Users/russellstokke/Desktop/01 Part 01.flac
/Users/russellstokke/Desktop/01 Part 01.mp3
CRC32 hash (test run) : 0477BEA3
CRC32 hash : 0477BEA3
CRC32 hash (skip zero) : 0221D2C1
AccurateRip signature : DC249318
->Track not present in AccurateRip database.
Statistics
Read error : 0
Skipped (treated as error) : 0
Edge jitter error (maybe fixed) : 0
Atom jitter error (maybe fixed) : 0
Drift error (maybe fixed) : 0
Dropped bytes error (maybe fixed) : 0
Duplicated bytes error (maybe fixed) : 0
Inconsistency in error sectors : 0
Track 02
Filename : /Users/russellstokke/Desktop/02 Part 02.flac
/Users/russellstokke/Desktop/02 Part 02.mp3
CRC32 hash (test run) : 95C49C23
CRC32 hash : 95C49C23
CRC32 hash (skip zero) : 2BCE0C2C
AccurateRip signature : 27936901
->Track not present in AccurateRip database.
Statistics
Read error : 0
Skipped (treated as error) : 0
Edge jitter error (maybe fixed) : 0
Atom jitter error (maybe fixed) : 0
Drift error (maybe fixed) : 0
Dropped bytes error (maybe fixed) : 0
Duplicated bytes error (maybe fixed) : 0
Inconsistency in error sectors : 0
Track 03
Filename : /Users/russellstokke/Desktop/03 Part 03.flac
/Users/russellstokke/Desktop/03 Part 03.mp3
CRC32 hash (test run) : B513BBB7
CRC32 hash : B513BBB7
CRC32 hash (skip zero) : 1A1C30A9
AccurateRip signature : 79E93AF9
->Track not present in AccurateRip database.
Statistics
Read error : 0
Skipped (treated as error) : 0
Edge jitter error (maybe fixed) : 0
Atom jitter error (maybe fixed) : 0
Drift error (maybe fixed) : 0
Dropped bytes error (maybe fixed) : 0
Duplicated bytes error (maybe fixed) : 0
Inconsistency in error sectors : 0
Track 04
Filename : /Users/russellstokke/Desktop/04 Part 04.flac
/Users/russellstokke/Desktop/04 Part 04.mp3
CRC32 hash (test run) : 0628CD78
CRC32 hash : 0628CD78
CRC32 hash (skip zero) : 993E0459
AccurateRip signature : 250BC074
->Track not present in AccurateRip database.
Statistics
Read error : 0
Skipped (treated as error) : 0
Edge jitter error (maybe fixed) : 0
Atom jitter error (maybe fixed) : 0
Drift error (maybe fixed) : 0
Dropped bytes error (maybe fixed) : 0
Duplicated bytes error (maybe fixed) : 0
Inconsistency in error sectors : 0
Track 05
Filename : /Users/russellstokke/Desktop/05 Part 05.flac
/Users/russellstokke/Desktop/05 Part 05.mp3
CRC32 hash (test run) : 6D65FE35
CRC32 hash : 6D65FE35
CRC32 hash (skip zero) : B395729F
AccurateRip signature : 424E0EB8
->Track not present in AccurateRip database.
Statistics
Read error : 0
Skipped (treated as error) : 0
Edge jitter error (maybe fixed) : 0
Atom jitter error (maybe fixed) : 0
Drift error (maybe fixed) : 0
Dropped bytes error (maybe fixed) : 0
Duplicated bytes error (maybe fixed) : 0
Inconsistency in error sectors : 0
Track 06
Filename : /Users/russellstokke/Desktop/06 Part 06.flac
/Users/russellstokke/Desktop/06 Part 06.mp3
CRC32 hash (test run) : 9B1F9E0F
CRC32 hash : 9B1F9E0F
CRC32 hash (skip zero) : 8916D374
AccurateRip signature : B51A82D2
->Track not present in AccurateRip database.
Statistics
Read error : 0
Skipped (treated as error) : 0
Edge jitter error (maybe fixed) : 0
Atom jitter error (maybe fixed) : 0
Drift error (maybe fixed) : 0
Dropped bytes error (maybe fixed) : 0
Duplicated bytes error (maybe fixed) : 0
Inconsistency in error sectors : 0
Track 07
Filename : /Users/russellstokke/Desktop/07 Part 07.flac
/Users/russellstokke/Desktop/07 Part 07.mp3
CRC32 hash (test run) : 9A65F4D2
CRC32 hash : 9A65F4D2
CRC32 hash (skip zero) : 548E4CF1
AccurateRip signature : 7BE4D030
->Track not present in AccurateRip database.
Statistics
Read error : 0
Skipped (treated as error) : 0
Edge jitter error (maybe fixed) : 0
Atom jitter error (maybe fixed) : 2
Drift error (maybe fixed) : 0
Dropped bytes error (maybe fixed) : 0
Duplicated bytes error (maybe fixed) : 0
Inconsistency in error sectors : 0
No errors occurred
End of status report
downloaded from what.cd thanks a lot to toerag
 
toerag info:
I'm not clear on the release date and album title on this one. I have a 2xCD Atavistic under the title "Full Blast/Black Hole" and on the inside there is a second sleeve that says "Full Blast/Live at Tampere." I Googled around and it looks like these are two different releases, with the "Black Hole" one being from 2009 and the Tampere being from 2006 (being a bonus CD on the 2xCD) -- does anyone know?
Thanks!
Full Blast - Black Hole: http://rutracker.org/forum/viewtopic.php?t=2295832
Any questions -> support@pro-jazz.com. По всем вопросам пишите -> support@pro-jazz.com
17:53
166
Нет комментариев. Ваш будет первым!