Вы используете незарегистрированную версию компонента "Вкладки"!

Поиск

(Free Jazz, Free Improvisation) Anthony Braxton & Joe Fonda - Duets 1995 - 2007, FLAC (tracks+.cue), lossless

(Free Jazz, Free Improvisation) Anthony Braxton & Joe Fonda - Duets 1995 - 2007, FLAC (tracks+.cue), lossless
Треклист:
Anthony Braxton & Joe Fonda / Duets 1995
Жанр: Free Jazz, Free Improvisation
Страна-производитель диска: Portugal
Год издания: 2007
Издатель (лейбл): Clean Feed
Номер по каталогу: CF079CD
Аудиокодек: FLAC (*.flac)
Тип рипа: tracks+.cue
Битрейт аудио: lossless
Продолжительность: 72:44
Источник (релизер): mishka1981
Наличие сканов в содержимом раздачи: да
Треклист:
1. All of you
2. Relentlessness
3. Out of the Cage
4. Something from the Past
5. Composition 168+147
6. Composition 136
7. Composition 173
8. Autumn in New York
 
Лог создания рипа
Exact Audio Copy V1.0 beta 1 from 15. November 2010
EAC extraction logfile from 21. August 2012, 6:32
Anthony Braxton, Joe Fonda / Duets
Used drive : TSSTcorpCDDVDW TS-L633A Adapter: 3 ID: 0
Read mode : Secure
Utilize accurate stream : Yes
Defeat audio cache : Yes
Make use of C2 pointers : No
Read offset correction : 6
Overread into Lead-In and Lead-Out : No
Fill up missing offset samples with silence : Yes
Delete leading and trailing silent blocks : No
Null samples used in CRC calculations : Yes
Used interface : Installed external ASPI interface
Gap handling : Appended to previous track
Used output format : User Defined Encoder
Selected bitrate : 896 kBit/s
Quality : High
Add ID3 tag : No
Command line compressor : C:\Program Files\Exact Audio Copy\FLAC\FLAC.EXE
Additional command line options : -8 -V -T "ARTIST=%a" -T "TITLE=%t" -T "ALBUM=%g" -T "DATE=%y" -T "TRACKNUMBER=%n" -T "TOTALTRACKS=%x" -T "GENRE=%m" -T "ALBUMARTIST=%v" -T "ALBUM ARTIST=%v" -T "COMMENT=EAC Secure Mode, Test & Copy, AccurateRip, FLAC -8" %s
TOC of the extracted CD
Track | Start | Length | Start sector | End sector
---------------------------------------------------------
1 | 0:00.00 | 9:49.17 | 0 | 44191
2 | 9:49.17 | 10:26.33 | 44192 | 91174
3 | 20:15.50 | 3:27.05 | 91175 | 106704
4 | 23:42.55 | 7:08.23 | 106705 | 138827
5 | 30:51.03 | 10:10.25 | 138828 | 184602
6 | 41:01.28 | 10:19.14 | 184603 | 231041
7 | 51:20.42 | 11:18.55 | 231042 | 281946
8 | 62:39.22 | 10:04.45 | 281947 | 327291
Track 1
Filename C:\MY RIPS\01 - All of You.wav
Pre-gap length 0:00:02.00
Peak level 100.0 %
Extraction speed 1.3 X
Track quality 100.0 %
Test CRC 2E270BBF
Copy CRC 2E270BBF
Accurately ripped (confidence 2) [A45103E3]
Copy OK
Track 2
Filename C:\MY RIPS\02 - Relentlessness.wav
Pre-gap length 0:00:00.37
Peak level 100.0 %
Extraction speed 1.6 X
Track quality 100.0 %
Test CRC D05EDB6E
Copy CRC D05EDB6E
Accurately ripped (confidence 2) [E723E520]
Copy OK
Track 3
Filename C:\MY RIPS\03 - Out of the cage.wav
Pre-gap length 0:00:00.37
Peak level 100.0 %
Extraction speed 1.6 X
Track quality 100.0 %
Test CRC 3DC20A6D
Copy CRC 3DC20A6D
Accurately ripped (confidence 2) [DBDB6967]
Copy OK
Track 4
Filename C:\MY RIPS\04 - Something from the past.wav
Pre-gap length 0:00:00.37
Peak level 98.8 %
Extraction speed 1.8 X
Track quality 100.0 %
Test CRC 2A3C4B4A
Copy CRC 2A3C4B4A
Accurately ripped (confidence 2) [D46AA14A]
Copy OK
Track 5
Filename C:\MY RIPS\05 - Composition 168+147.wav
Pre-gap length 0:00:00.37
Peak level 98.8 %
Extraction speed 1.7 X
Track quality 99.9 %
Test CRC FF966C73
Copy CRC FF966C73
Accurately ripped (confidence 2) [984BC723]
Copy OK
Track 6
Filename C:\MY RIPS\06 - Composition 136.wav
Pre-gap length 0:00:00.37
Peak level 98.8 %
Extraction speed 2.2 X
Track quality 100.0 %
Test CRC FDB56882
Copy CRC FDB56882
Accurately ripped (confidence 2) [3F5B368B]
Copy OK
Track 7
Filename C:\MY RIPS\07 - Composition 173.wav
Pre-gap length 0:00:00.37
Peak level 98.8 %
Extraction speed 2.0 X
Track quality 99.9 %
Test CRC 8C0DA6AD
Copy CRC 8C0DA6AD
Accurately ripped (confidence 2) [50532E05]
Copy OK
Track 8
Filename C:\MY RIPS\08 - Autumn in New York.wav
Pre-gap length 0:00:00.37
Peak level 98.8 %
Extraction speed 2.5 X
Track quality 100.0 %
Test CRC 43180CBC
Copy CRC 43180CBC
Track not present in AccurateRip database
Copy OK
7 track(s) accurately ripped
1 track(s) not present in the AccurateRip database
Some tracks could not be verified as accurate
No errors occurred
End of status report
==== Log checksum C389414265C6CEE22250FCCFC75DAE5602A730085CE3328173462B2B641B119A ====
 
Содержание индексной карты (.CUE)
REM GENRE Jazz
REM DISCID 65110B08
REM COMMENT "ExactAudioCopy v1.0b1"
PERFORMER "Anthony Braxton, Joe Fonda"
TITLE "Duets"
FILE "01 - All of You.wav" WAVE
TRACK 01 AUDIO
TITLE "All of You"
PERFORMER "Anthony Braxton, Joe Fonda"
INDEX 01 00:00:00
TRACK 02 AUDIO
TITLE "Relentlessness"
PERFORMER "Anthony Braxton, Joe Fonda"
INDEX 00 09:48:55
FILE "02 - Relentlessness.wav" WAVE
INDEX 01 00:00:00
TRACK 03 AUDIO
TITLE "Out of the cage"
PERFORMER "Anthony Braxton, Joe Fonda"
INDEX 00 10:25:71
FILE "03 - Out of the cage.wav" WAVE
INDEX 01 00:00:00
TRACK 04 AUDIO
TITLE "Something from the past"
PERFORMER "Anthony Braxton, Joe Fonda"
INDEX 00 03:26:43
FILE "04 - Something from the past.wav" WAVE
INDEX 01 00:00:00
TRACK 05 AUDIO
TITLE "Composition 168+147"
PERFORMER "Anthony Braxton, Joe Fonda"
INDEX 00 07:07:61
FILE "05 - Composition 168+147.wav" WAVE
INDEX 01 00:00:00
TRACK 06 AUDIO
TITLE "Composition 136"
PERFORMER "Anthony Braxton, Joe Fonda"
INDEX 00 10:09:63
FILE "06 - Composition 136.wav" WAVE
INDEX 01 00:00:00
TRACK 07 AUDIO
TITLE "Composition 173"
PERFORMER "Anthony Braxton, Joe Fonda"
INDEX 00 10:18:52
FILE "07 - Composition 173.wav" WAVE
INDEX 01 00:00:00
TRACK 08 AUDIO
TITLE "Autumn in New York"
PERFORMER "Anthony Braxton, Joe Fonda"
INDEX 00 11:18:18
FILE "08 - Autumn in New York.wav" WAVE
INDEX 01 00:00:00
 
Об альбоме (сборнике)
This is a reissue of the long disappeared CD on Konnex recorded by multi-instrumentalist Anthony Braxton with one of his most notable pupils, Joe Fonda. "Duets 1995" is a remarkable item of the duo series from this frontline figure of avant-garde jazz. If in that series we find two other Braxton partnerships with bassists, namely Mario Pavone and the late Peter Niklas Wilson, this is far from being more of the same. Even the conservative jazz fans will find here something to deal with. The renditions of two precious standards, Cole Porter's "All of You" and Vernon Duke's "Autumn in New York," show the obvious admiration Anthony Braxton has for Paul Desmond. Both Fonda's and Braxton's compositions and improvisations are angular, complex, and tricky in terms of tonality and rhythm, but it would be unfair to say that this kind of approach to the jazz idiom is "cerebral". This music has such a human dimension and feeling that any liberty taken appears to be natural in the continuum of African-American music. "Ancient to the future" it is, and with a fine level of communicability. As Joe Fonda once put it, "we live in a time of evolution", and nothing can be taken out of the referred continuum: "For me there's no separation between Bill Evans and Cecil Taylor or Sun Ra and Charlie Parker." All of them communicated in different ways, but it always was understood. This Braxton / Fonda collection is also highly likeable.
 
Состав
Anthony Braxton (as, cl) Joe Fonda (b)
Any questions -> support@pro-jazz.com. По всем вопросам пишите -> support@pro-jazz.com
03:09
152
Нет комментариев. Ваш будет первым!