Вы используете незарегистрированную версию компонента "Вкладки"!

Поиск

(Free Jazz, Free Improvisation) Andrew Voigt & Anthony Braxton - Kol Nidre - 1990, APE (image+.cue) lossless

(Free Jazz, Free Improvisation) Andrew Voigt & Anthony Braxton - Kol Nidre - 1990, APE (image+.cue) lossless
Треклист:
Andrew Voigt & Anthony Braxton - Kol Nidre
Жанр: Free Jazz, Free Improvisation
Страна-производитель диска: W. Germany
Год издания диска: 1990
Издатель (лейбл): Sound Aspects
Номер по каталогу: SAS CD 031
Аудио кодек: APE (*.ape)
Тип рипа: image+.cue
Битрейт аудио: lossless
Продолжительность: 35:31
Источник (релизер): avaxhome (basa005) - thanks!
Наличие сканов в содержимом раздачи: да
Треклист:
1. Composition No. 85 (Braxton) [4:39]
2. Composition No. 87 (Braxton) [14:17]
3. Kol Nidre (Voigt) [7:44]
4. Break'n Rag Voigt (Voigt) [8:30]
Anthony Braxton - alto, soprano, sopranino, C melody and bass saxophones
Andrew Voigt - alto, soprano, sopranino and tenor saxophones, Eb flute
Recorded December 10/11, 1988 at Garuda Records, San Francisco, CA (USA), Engineer: Ed Herman
Mastered December 1989 at Studio Bauer, Engineer: J. Wohlleben
Artwork by Ben Pierre Lindgren "Almost Infinity"
Design by Pedro de Freitas
Produced by Andrew Voigt and Pedro de Freitas
 
Лог создания рипа (EAC Log)
Exact Audio Copy V0.99 prebeta 4 from 23. January 2008
EAC extraction logfile from 25. February 2011, 16:20
Anthony Braxton / Kol Nidre
Used drive : ATAPI DVD A DH16A1L Adapter: 1 ID: 0
Read mode : Secure
Utilize accurate stream : Yes
Defeat audio cache : Yes
Make use of C2 pointers : No
Read offset correction : 6
Overread into Lead-In and Lead-Out : No
Fill up missing offset samples with silence : Yes
Delete leading and trailing silent blocks : No
Null samples used in CRC calculations : Yes
Used interface : Native Win32 interface for Win NT & 2000
Used output format : Internal WAV Routines
Sample format : 44.100 Hz; 16 Bit; Stereo
TOC of the extracted CD
Track | Start | Length | Start sector | End sector
---------------------------------------------------------
1 | 0:00.32 | 4:45.55 | 32 | 21461
2 | 4:46.12 | 14:24.28 | 21462 | 86289
3 | 19:10.40 | 7:51.55 | 86290 | 121669
4 | 27:02.20 | 8:29.42 | 121670 | 159886
Range status and errors
Selected range
Filename C:\avaxhome\Anthony Braxton - Kol Nidre.wav
Peak level 64.1 %
Range quality 100.0 %
Copy CRC C021C394
Copy OK
No errors occurred
AccurateRip summary
Track 1 accurately ripped (confidence 2) [B737AE41]
Track 2 accurately ripped (confidence 2) [1D267261]
Track 3 accurately ripped (confidence 2) [3B84BC66]
Track 4 accurately ripped (confidence 2) [13A38A27]
All tracks accurately ripped
End of status report
 
Содержание индексной карты (.CUE)
REM GENRE Jazz
REM DATE 1990
REM DISCID 2A085304
REM COMMENT "ExactAudioCopy v0.99pb4"
PERFORMER "Anthony Braxton"
TITLE "Kol Nidre"
FILE "Anthony Braxton - Kol Nidre.APE" WAVE
TRACK 01 AUDIO
TITLE "Composition No.85"
PERFORMER "Anthony Braxton"
INDEX 00 00:00:00
INDEX 01 00:00:32
TRACK 02 AUDIO
TITLE "Composition No.87"
PERFORMER "Anthony Braxton"
INDEX 00 04:39:33
INDEX 01 04:46:12
TRACK 03 AUDIO
TITLE "Kol Nidre"
PERFORMER "Anthony Braxton"
INDEX 00 19:02:62
INDEX 01 19:10:40
TRACK 04 AUDIO
TITLE "Break'n Rag Voigt"
PERFORMER "Anthony Braxton"
INDEX 00 26:54:45
INDEX 01 27:02:20
 
Back
По всем вопросам пишите личное сообщение пользователю M0p94ok.
09:20
207
Нет комментариев. Ваш будет первым!