Вы используете незарегистрированную версию компонента "Вкладки"!

Поиск

(Free Jazz, Free Bop) [CD] Rich Halley - Coyotes In The City - 2001, FLAC (tracks+.cue), lossless

(Free Jazz, Free Bop) [CD] Rich Halley - Coyotes In The City - 2001, FLAC (tracks+.cue), lossless
Треклист:
Rich Halley / Coyotes In The City
Жанр: Free Jazz, Free Bop
Носитель: CD
Страна-производитель диска: US
Год издания: 2001
Издатель (лейбл): Louie Records
Номер по каталогу: louie021
Страна: US
Аудиокодек: FLAC (*.flac)
Тип рипа: tracks+.cue
Битрейт аудио: lossless
Продолжительность: 62:58
Источник (релизер): свой фирменный диск
Наличие сканов в содержимом раздачи:
Треклист:
1. Green, Brown And Blue 13:25
2. Green Dusk 7:01
3. Crows 13:24
4. Half Light 5:35
5. Coyotes In The City 13:25
6. Rimrocks 10:03
 
Лог создания рипа
Exact Audio Copy V1.0 beta 3 from 29. August 2011
EAC extraction logfile from 17. February 2014, 23:01
Rich Halley / Coyotes In The City
Used drive : PIONEER DVD-RW DVR-115D Adapter: 0 ID: 0
Read mode : Secure
Utilize accurate stream : Yes
Defeat audio cache : Yes
Make use of C2 pointers : No
Read offset correction : 48
Overread into Lead-In and Lead-Out : No
Fill up missing offset samples with silence : Yes
Delete leading and trailing silent blocks : No
Null samples used in CRC calculations : Yes
Used interface : Installed external ASPI interface
Gap handling : Appended to previous track
Used output format : User Defined Encoder
Selected bitrate : 896 kBit/s
Quality : High
Add ID3 tag : No
Command line compressor : C:\Program Files\Exact Audio Copy\FLAC\FLAC.EXE
Additional command line options : -6 -V -T "ARTIST=%artist%" -T "TITLE=%title%" -T "ALBUM=%albumtitle%" -T "DATE=%year%" -T "TRACKNUMBER=%tracknr%" -T "GENRE=%genre%" -T "COMMENT=%comment%" -T "BAND=%albuminterpret%" -T "COMPOSER=%composer%" %haslyrics%--tag-from-file=LYRICS="%lyricsfile%"%haslyrics% -T "DISCNUMBER=%cdnumber%" -T "TOTALDISCS=%totalcds%" -T "TOTALTRACKS=%numtracks%" %hascover%--picture="%coverfile%"%hascover% %source% -o %dest%
TOC of the extracted CD
Track | Start | Length | Start sector | End sector
---------------------------------------------------------
1 | 0:00.00 | 13:25.68 | 0 | 60442
2 | 13:25.68 | 7:01.20 | 60443 | 92037
3 | 20:27.13 | 13:24.13 | 92038 | 152350
4 | 33:51.26 | 5:35.47 | 152351 | 177522
5 | 39:26.73 | 13:25.50 | 177523 | 237947
6 | 52:52.48 | 10:05.37 | 237948 | 283359
Track 1
Filename D:\zzz\01 - Green, Brown And Blue.wav
Pre-gap length 0:00:02.00
Peak level 97.7 %
Extraction speed 5.2 X
Track quality 100.0 %
Test CRC 2FB78133
Copy CRC 2FB78133
Accurately ripped (confidence 1) [B611D461] (AR v1)
Copy OK
Track 2
Filename D:\zzz\02 - Green Dusk.wav
Pre-gap length 0:00:03.00
Peak level 97.7 %
Extraction speed 5.6 X
Track quality 99.9 %
Test CRC 6DD42D77
Copy CRC 6DD42D77
Accurately ripped (confidence 1) [F77E69AC] (AR v1)
Copy OK
Track 3
Filename D:\zzz\03 - Crows.wav
Pre-gap length 0:00:03.00
Peak level 97.7 %
Extraction speed 7.1 X
Track quality 100.0 %
Test CRC 4176DF19
Copy CRC 4176DF19
Accurately ripped (confidence 1) [B05C9B37] (AR v1)
Copy OK
Track 4
Filename D:\zzz\04 - Half Light.wav
Pre-gap length 0:00:04.00
Peak level 97.7 %
Extraction speed 6.7 X
Track quality 99.9 %
Test CRC CA3563E9
Copy CRC CA3563E9
Accurately ripped (confidence 1) [F6B45A08] (AR v1)
Copy OK
Track 5
Filename D:\zzz\05 - Coyotes In The City.wav
Pre-gap length 0:00:03.00
Peak level 97.7 %
Extraction speed 8.3 X
Track quality 100.0 %
Test CRC 52601AF3
Copy CRC 52601AF3
Accurately ripped (confidence 1) [A41270DF] (AR v1)
Copy OK
Track 6
Filename D:\zzz\06 - Rimrocks.wav
Pre-gap length 0:00:05.00
Peak level 97.7 %
Extraction speed 8.9 X
Track quality 100.0 %
Test CRC 51977B3C
Copy CRC 51977B3C
Accurately ripped (confidence 1) [D47A535D] (AR v1)
Copy OK
All tracks accurately ripped
No errors occurred
End of status report
==== Log checksum 4BF16DE6FAE37D0858B8D4B2F9A15EF55664F04AFE321EB0927C7C159612663E ====
 
Содержание индексной карты (.CUE)
REM GENRE "Free Jazz"
REM DATE 2001
REM DISCID 490EC206
REM COMMENT "ExactAudioCopy v1.0b3"
PERFORMER "Rich Halley"
TITLE "Coyotes In The City"
FILE "01 - Green, Brown And Blue.wav" WAVE
TRACK 01 AUDIO
TITLE "Green, Brown And Blue"
PERFORMER "Rich Halley"
INDEX 01 00:00:00
TRACK 02 AUDIO
TITLE "Green Dusk"
PERFORMER "Rich Halley"
INDEX 00 13:22:68
FILE "02 - Green Dusk.wav" WAVE
INDEX 01 00:00:00
TRACK 03 AUDIO
TITLE "Crows"
PERFORMER "Rich Halley"
INDEX 00 06:58:20
FILE "03 - Crows.wav" WAVE
INDEX 01 00:00:00
TRACK 04 AUDIO
TITLE "Half Light"
PERFORMER "Rich Halley"
INDEX 00 13:20:13
FILE "04 - Half Light.wav" WAVE
INDEX 01 00:00:00
TRACK 05 AUDIO
TITLE "Coyotes In The City"
PERFORMER "Rich Halley"
INDEX 00 05:32:47
FILE "05 - Coyotes In The City.wav" WAVE
INDEX 01 00:00:00
TRACK 06 AUDIO
TITLE "Rimrocks"
PERFORMER "Rich Halley"
INDEX 00 13:20:50
FILE "06 - Rimrocks.wav" WAVE
INDEX 01 00:00:00
 
Лог проверки качества
d:\>d:\aucdtect -d/-m0 d:\zzz\*.wav
auCDtect: CD records authenticity detector, version 0.8.2
Copyright (c) 2004 Oleg Berngardt. All rights reserved.
Copyright (c) 2004 Alexander Djourik. All rights reserved.
------------------------------------------------------------
Processing file: [01. Green, Brown And Blue.wav]
------------------------------------------------------------
This track looks like CDDA with probability 100%
------------------------------------------------------------
Processing file: [02. Green Dusk.wav]
------------------------------------------------------------
This track looks like CDDA with probability 100%
------------------------------------------------------------
Processing file: [03. Crows.wav]
------------------------------------------------------------
This track looks like CDDA with probability 100%
------------------------------------------------------------
Processing file: [04. Half Light.wav]
------------------------------------------------------------
This track looks like CDDA with probability 100%
------------------------------------------------------------
Processing file: [05. Coyotes In The City.wav]
------------------------------------------------------------
This track looks like CDDA with probability 100%
------------------------------------------------------------
Processing file: [06. Rimrocks.wav]
------------------------------------------------------------
This track looks like CDDA with probability 100%
------------------------------------------------------------
Final Conclusion:
------------------------------------------------------------
These tracks looks like CDDA with probability 100%
Доп. информация:
 
Album Info & AMG Review
All compositions by Rich Halley
Recorded March 25, 2001 at Califas Studio, Corvallis, Oregon
Produced by Rich Halley & Dave Storrs
Engineered by Dave Storrs
Mastered by Dave Trenkel
Photos by Robert C. Pyle
Layout and design by Ben Brown
Thanks to Megan and John at the Tug Boat, Katie Bretsch, and Betty and Carson Halley
All the tracks on this CD were recorded in one take on Sunday, March 25, 2001. Dave, Clyde and I had played at the Tug Boat the night before and the session felt like an extension of the live performance: we started playing and the music took its own course. That seems to be the operating mode of this group. Some of the compositions, including the title track "Coyotes In The City", were written for a series of walk-in outdoor concerts I have been doing in Powell Butte Nature Park at the east edge of Portland. The musical communication in this trio allows the compositions to develop intuitively and takes the music to a new and different place. - Rich Halley
Oregon-based tenor saxophonist Rich Halley is heard here in a trio setting with bassist Clyde Reed and drummer Dave Storrs. Together, the three speak in a hefty free jazz idiom. Halley's horn is brassy and aggressive, but often warm, alternating between the tumultuous currents of "Green, Brown and Blue" and the rubato calm of "Green Dusk" and "Half Light." On "Crows," he begins with soprano sax improvisation in tempo; the tune edges back toward freedom as Halley switches to percussion and then tenor. The title track finds Storrs suggesting a steady kick-drum beat for the others to chew on; Halley starts out on soprano but then plays wood flute for a spell, returning to sax when Reed locks in the tempo with a half-time walking bassline. Closing with "Rimrocks," Halley and Reed state a plaintive melody in unison with subtle commentary from Storrs; the trio then launches into busy yet thoughtful interplay over a hot, quasi-free groove. A challenging yet rewarding listen, and a valuable reminder that New York isn't the avant-garde's only home.
 
Состав
Rich Halley: tenor & soprano saxophones, wood flute, percussion
Clyde Reed: bass
Dave Storrs: drums & percussion
По всем вопросам пишите личное сообщение пользователю M0p94ok.
00:01
148
Нет комментариев. Ваш будет первым!