Вы используете незарегистрированную версию компонента "Вкладки"!

Поиск

(Free Jazz) Fred Anderson Quartet (Billy Brimfield, Larry Hayrod, Hamid Drake) - The Milwaukee Tapes Vol. 1 - 2000 (1980), FLAC (tracks+.cue) lossless

Треклист:
Fred Anderson Quartet / The Milwaukee Tapes Vol. 1
Жанр: Free Jazz
Страна-производитель диска: США
Год издания диска: 2000 (1980)
Издатель (лейбл): Atavistic
Номер по каталогу: UMS204CD
Страна: США
Аудио кодек: FLAC (*.flac)
Тип рипа: tracks+.cue
Битрейт аудио: lossless
Продолжительность: 1:10:25
Источник (релизер): другой трекер (iwals)
Наличие сканов в содержимом раздачи: да
Треклист:
1. A Ballad for Rita 17:03
2. The Bull 19:24
3. Black Woman 13:29
4. Bombay (Children of Cambodia) 10:07
5. Planet E 10:22
All compositions by Fred Anderson except "Bombay (Children of Cambodia)" by Hamid Drake
Recorded in Milwaukee, January or February 1980
 
Лог создания рипа
EAC extraction logfile from 17. March 2007, 9:52 for CD
Fred Anderson / The Milwaukee Tapes Vol. I
Used drive : LITE-ON LTR-52327S Adapter: 1 ID: 0
Read mode : Secure with NO C2, accurate stream, disable cache
Read offset correction : 6
Overread into Lead-In and Lead-Out : No
Used output format : Internal WAV Routines
44.100 Hz; 16 Bit; Stereo
Other options :
Fill up missing offset samples with silence : Yes
Delete leading and trailing silent blocks : No
Native Win32 interface for Win NT & 2000
Track 1
Filename E:\New Rip\Fred Anderson - The Milwaukee Tapes Vol. I\01 - A Ballad for Rita.wav
Pre-gap length 0:00:02.00
Peak level 98.8 %
Track quality 100.0 %
Test CRC 5DF9C8DF
Copy CRC 5DF9C8DF
Copy OK
Track 2
Filename E:\New Rip\Fred Anderson - The Milwaukee Tapes Vol. I\02 - The Bull.wav
Peak level 98.9 %
Track quality 100.0 %
Test CRC A9EF07F0
Copy CRC A9EF07F0
Copy OK
Track 3
Filename E:\New Rip\Fred Anderson - The Milwaukee Tapes Vol. I\03 - Black Woman.wav
Peak level 98.9 %
Track quality 99.9 %
Test CRC 65DDBF30
Copy CRC 65DDBF30
Copy OK
Track 4
Filename E:\New Rip\Fred Anderson - The Milwaukee Tapes Vol. I\04 - Bombay (Children of Cambodia).wav
Peak level 98.8 %
Track quality 100.0 %
Test CRC 0CF02977
Copy CRC 0CF02977
Copy OK
Track 5
Filename E:\New Rip\Fred Anderson - The Milwaukee Tapes Vol. I\05 - Planet E.wav
Peak level 98.9 %
Track quality 100.0 %
Test CRC 7D5AAB66
Copy CRC 7D5AAB66
Copy OK
No errors occured
End of status report
 
Содержание индексной карты (.CUE)
REM GENRE Jazz
REM DATE 1980
REM DISCID 45108105
REM COMMENT "ExactAudioCopy v0.95b3"
PERFORMER "Fred Anderson"
TITLE "The Milwaukee Tapes Vol. I"
FILE "01 - A Ballad for Rita.wav" WAVE
TRACK 01 AUDIO
TITLE "A Ballad for Rita"
PERFORMER "Fred Anderson"
FLAGS DCP
INDEX 01 00:00:00
FILE "02 - The Bull.wav" WAVE
TRACK 02 AUDIO
TITLE "The Bull"
PERFORMER "Fred Anderson"
FLAGS DCP
INDEX 01 00:00:00
FILE "03 - Black Woman.wav" WAVE
TRACK 03 AUDIO
TITLE "Black Woman"
PERFORMER "Fred Anderson"
FLAGS DCP
INDEX 01 00:00:00
FILE "04 - Bombay (Children of Cambodia).wav" WAVE
TRACK 04 AUDIO
TITLE "Bombay (Children of Cambodia)"
PERFORMER "Fred Anderson"
FLAGS DCP
INDEX 01 00:00:00
FILE "05 - Planet E.wav" WAVE
TRACK 05 AUDIO
TITLE "Planet E"
PERFORMER "Fred Anderson"
FLAGS DCP
INDEX 01 00:00:00
 
Лог проверки качества
AUDIOCHECKER v2.0 beta (build 457) - by Dester - opdester@freemail.hu
~~~~~~~~~~~~~~~~~~~~~~~~~~~~~~~~~~
-=== DO NOT EDIT THIS FILE! ===-
Path: ...\the milwaukee tapes vol. i 1980
1 -=- 01 - A Ballad for Rita.flac -=- CDDA (100%)
2 -=- 02 - The Bull.flac -=- CDDA (100%)
3 -=- 03 - Black Woman.flac -=- CDDA (99%)
4 -=- 04 - Bombay (Children of Cambodia).flac -=- CDDA (100%)
5 -=- 05 - Planet E.flac -=- CDDA (100%)
Summary 99,80% CDDA
136058308
 
Состав
Fred Anderson tenor saxophone
Billy Brimfield trumpet
Larry Hayrod bass
Hamid Drake drums, tabla
По всем вопросам пишите личное сообщение пользователю M0p94ok.
10:09
223
Нет комментариев. Ваш будет первым!