Вы используете незарегистрированную версию компонента "Вкладки"!

Поиск

(free jazz)Francois Carrier, Michel Lambert, Alexey Lapin - In Motion 2011, FLAC (tracks+.cue), lossless

(free jazz)Francois Carrier, Michel Lambert, Alexey Lapin - In Motion 2011, FLAC (tracks+.cue), lossless
Треклист:


Francois Carrier, Michel Lambert, Alexey Lapin
"In Motion" 2011
Жанр: free jazz
Год выпуска: 2011
Издатель (лейбл):Leo CD LR 623
Формат: FLAC (tracks+.cue)
Битрейт аудио: lossless
Продолжительность 47`10
Источник: what.cd
Franзois Carrier: alto saxophone
Michel Lambert: drums
Alexey Lapin: piano
In December 2010 Francois Carrier went to Russia to play and record with the Russian musicians. His courage was rewarded, for he found fantastic musical partners. One of them is a piano player Alexey Lapin who has become a household name in the catalogue of Leo Records. For this date in the snowy St. Petersburg they were joined by the Canadian drummer Michel Lambert who is Francois' regular partner. This music contains urgency, discovery, humour, stimulation, geometry, serenity, intensity, harshness, unity, technique, sharing......

tracks

This Grand?
Is He...
All of a Sudden
About to Go
Love in Space.


 
.log
Exact Audio Copy V1.0 beta 2 from 29. April 2011
EAC extraction logfile from 19. January 2013, 13:44
Francois Carrier, Alexey Lapin, Michel Lambert - drums / In Motion
Used drive : HL-DT-STDVDRAM GH24NS50 Adapter: 0 ID: 0
Read mode : Secure
Utilize accurate stream : Yes
Defeat audio cache : Yes
Make use of C2 pointers : No
Read offset correction : 667
Overread into Lead-In and Lead-Out : No
Fill up missing offset samples with silence : Yes
Delete leading and trailing silent blocks : No
Null samples used in CRC calculations : Yes
Used interface : Installed external ASPI interface
Gap handling : Appended to previous track
Used output format : User Defined Encoder
Selected bitrate : 768 kBit/s
Quality : High
Add ID3 tag : No
Command line compressor : E:\Programmi\Exact Audio Copy\Flac\flac.exe
Additional command line options : -8 -V -T "ARTIST=%artist%" -T "TITLE=%title%" -T "ALBUM=%albumtitle%" -T "DATE=%year%" -T "TRACKNUMBER=%tracknr%" -T "TOTALTRACKS=%numtracks%" -T "GENRE=%genre%" -T "ALBUMARTIST=%albumartist%" -T "ALBUM ARTIST=%albumartist%
TOC of the extracted CD
Track | Start | Length | Start sector | End sector
---------------------------------------------------------
1 | 0:00.00 | 17:59.28 | 0 | 80952
2 | 17:59.28 | 6:57.47 | 80953 | 112274
3 | 24:57.00 | 6:43.68 | 112275 | 142567
4 | 31:40.68 | 10:16.34 | 142568 | 188801
5 | 41:57.27 | 5:12.35 | 188802 | 212236
Track 1
Filename C:\Documents and Settings\user\Desktop\Carrier, Lambert, Lapin - In Motion (2011) [FLAC] {Leo Records}\01 - This Grand.wav
Pre-gap length 0:00:02.00
Peak level 98.5 %
Extraction speed 1.3 X
Track quality 100.0 %
Test CRC 86A3B761
Copy CRC 86A3B761
Accurately ripped (confidence 1) [6DF511B5] (AR v1)
Copy OK
Track 2
Filename C:\Documents and Settings\user\Desktop\Carrier, Lambert, Lapin - In Motion (2011) [FLAC] {Leo Records}\02 - Is He.wav
Peak level 91.1 %
Extraction speed 1.5 X
Track quality 99.9 %
Test CRC 141E2D05
Copy CRC 141E2D05
Accurately ripped (confidence 1) [FC5BE37A] (AR v1)
Copy OK
Track 3
Filename C:\Documents and Settings\user\Desktop\Carrier, Lambert, Lapin - In Motion (2011) [FLAC] {Leo Records}\03 - All Of A Sudden.wav
Peak level 98.5 %
Extraction speed 1.7 X
Track quality 100.0 %
Test CRC 55DF36BA
Copy CRC 55DF36BA
Accurately ripped (confidence 1) [929FF562] (AR v1)
Copy OK
Track 4
Filename C:\Documents and Settings\user\Desktop\Carrier, Lambert, Lapin - In Motion (2011) [FLAC] {Leo Records}\04 - About To Go.wav
Peak level 98.5 %
Extraction speed 2.0 X
Track quality 100.0 %
Test CRC 93D6594B
Copy CRC 93D6594B
Accurately ripped (confidence 1) [37730CD0] (AR v1)
Copy OK
Track 5
Filename C:\Documents and Settings\user\Desktop\Carrier, Lambert, Lapin - In Motion (2011) [FLAC] {Leo Records}\05 - Love In Space.wav
Peak level 98.5 %
Extraction speed 1.9 X
Track quality 99.9 %
Test CRC 8F97E494
Copy CRC 8F97E494
Accurately ripped (confidence 1) [23D99ACC] (AR v1)
Copy OK
All tracks accurately ripped
No errors occurred
End of status report
==== Log checksum C8ADB53FEFB80C608045C6D0ED0FB96F8B1E63AD897F1DC42D05946BEFC55759 ====
 
.cue
REM GENRE Jazz
REM DATE 2011
REM DISCID 400B0D05
REM COMMENT "ExactAudioCopy v1.0b2"
PERFORMER "Francois Carrier, Alexey Lapin, Michel Lambert"
TITLE "In Motion"
FILE "01 - This Grand.wav" WAVE
TRACK 01 AUDIO
TITLE "This Grand"
PERFORMER "Francois Carrier, Alexey Lapin, Michel Lambert"
INDEX 01 00:00:00
FILE "02 - Is He.wav" WAVE
TRACK 02 AUDIO
TITLE "Is He"
PERFORMER "Francois Carrier, Alexey Lapin, Michel Lambert"
INDEX 01 00:00:00
FILE "03 - All Of A Sudden.wav" WAVE
TRACK 03 AUDIO
TITLE "All Of A Sudden"
PERFORMER "Francois Carrier, Alexey Lapin, Michel Lambert"
INDEX 01 00:00:00
FILE "04 - About To Go.wav" WAVE
TRACK 04 AUDIO
TITLE "About To Go"
PERFORMER "Francois Carrier, Alexey Lapin, Michel Lambert"
INDEX 01 00:00:00
FILE "05 - Love In Space.wav" WAVE
TRACK 05 AUDIO
TITLE "Love In Space "
PERFORMER "Francois Carrier, Alexey Lapin, Michel Lambert"
INDEX 01 00:00:00

другие релизы
Any questions -> support@pro-jazz.com. По всем вопросам пишите -> support@pro-jazz.com
08:53
124
Нет комментариев. Ваш будет первым!