Вы используете незарегистрированную версию компонента "Вкладки"!

Поиск

(Free Jazz (FMP)) Peter Kowald, Wadada Leo Smith, Gunter Sommer - Touch the Earth - Break the Shells - 1997, FLAC (image+.cue), lossless

Треклист:
Peter Kowald, Wadada Leo Smith, Gunter Sommer - Touch the Earth - Break the Shells
Жанр: Free Jazz (FMP)
Год выпуска диска: 1997
Производитель диска: Germany (FMP)
Аудио кодек: FLAC
Тип рипа: image+.cue
Битрейт аудио: lossless
Продолжительность: 72:08
Трэклист:
01 Gebr. Loesch
02 Touch the Earth
03 Wind Song in a Dance of Unity
04 Rastafari in the Universe
05 In Light
06 Ein Stьck Ьber Dem Boden
07 Radepur im Februar
08 Unlost Time
09 Long Time No See
Peter Kowald bass
Wadada Leo Smith tp, flhrn, arican thumb piano, fl
Gunter Sommer d, prc, bells, organ pipes
Rec live at the "Floz" in Berlin 1979 (1, 2, 3, 5, 6, 7)
And 1981 (4, 8 & 9)
Доп. информация: рип мой
сканы есть
 
отчёт ЕАС
Exact Audio Copy V0.99 prebeta 5 from 4. May 2009
EAC extraction logfile from 30. April 2010, 15:17
Peter Kowald, Wadada Leo Smith, Gьnter Sommer / Touch the Earth - Break the Shells
Used drive : Optiarc DVD RW AD-5200S Adapter: 1 ID: 0
Read mode : Secure
Utilize accurate stream : Yes
Defeat audio cache : Yes
Make use of C2 pointers : No
Read offset correction : 48
Overread into Lead-In and Lead-Out : No
Fill up missing offset samples with silence : Yes
Delete leading and trailing silent blocks : No
Null samples used in CRC calculations : Yes
Used interface : Installed external ASPI interface
Used output format : User Defined Encoder
Selected bitrate : 192 kBit/s
Quality : High
Add ID3 tag : No
Command line compressor : C:\Program Files\Burrrn\flac.exe
Additional command line options : -T "DATE=%y" -T "GENRE=%m" -8 -V %s
TOC of the extracted CD
Track | Start | Length | Start sector | End sector
---------------------------------------------------------
1 | 0:00.00 | 4:14.50 | 0 | 19099
2 | 4:14.50 | 12:54.35 | 19100 | 77184
3 | 17:09.10 | 3:55.35 | 77185 | 94844
4 | 21:04.45 | 11:59.40 | 94845 | 148809
5 | 33:04.10 | 12:12.15 | 148810 | 203724
6 | 45:16.25 | 3:56.00 | 203725 | 221424
7 | 49:12.25 | 7:24.15 | 221425 | 254739
8 | 56:36.40 | 8:02.15 | 254740 | 290904
9 | 64:38.55 | 7:29.12 | 290905 | 324591
Range status and errors
Selected range
Filename F:\EAC\kowald\Peter Kowald, Wadada Leo Smith, Gьnter Sommer - Touch the Earth - Break the Shells.wav
Peak level 100.0 %
Range quality 100.0 %
Copy CRC 207D1E4B
Copy OK
No errors occurred
AccurateRip summary
Track 1 accurately ripped (confidence 1) [454C50AA]
Track 2 accurately ripped (confidence 1) [026EB721]
Track 3 accurately ripped (confidence 1) [07997FF9]
Track 4 accurately ripped (confidence 1) [F1EB45AF]
Track 5 accurately ripped (confidence 1) [5C217845]
Track 6 accurately ripped (confidence 1) [86A8D0DB]
Track 7 accurately ripped (confidence 1) [364DCD9B]
Track 8 accurately ripped (confidence 1) [7885C408]
Track 9 accurately ripped (confidence 1) [C678F395]
All tracks accurately ripped
End of status report
Any questions -> support@pro-jazz.com. По всем вопросам пишите -> support@pro-jazz.com
22:00
179
Нет комментариев. Ваш будет первым!