Вы используете незарегистрированную версию компонента "Вкладки"!

Поиск

(free jazz, experimental) Ohne 4 gespielt drei - Debut - 2005, FLAC (image+.cue) lossless

Треклист:
Ohne 4 gespielt drei / Debut
Жанр: free jazz, experimental
Страна-производитель диска: Germany
Год издания диска: 2005
Издатель (лейбл): JazzHausMusic
Номер по каталогу: JHM 143
Страна: Germany
Аудио кодек: FLAC (*.flac)
Тип рипа: image+.cue
Битрейт аудио: lossless
Продолжительность: 50;13
Источник (релизер): собственный рип
Наличие сканов в содержимом раздачи: да
Треклист:
1. pankreas punk
2. fassanstich
3. zick-zack
4. old school aus der tiefe des raumes;
5. part 1; nordkurve
6. part 2: heimspiel
7. part 3: knappenkarte
8. part 4: dritte halbzeit
9. red nozed puppet
10. williasburger
11. wellness in der uckermark
12. brisko & titus
 
Лог создания рипа
Exact Audio Copy V0.99 prebeta 5 from 4. May 2009
EAC extraction logfile from 19. April 2011, 10:50
Ohne 4 gespielt drei / Debut
Used drive : Optiarc DVD RW AD-7243S Adapter: 0 ID: 1
Read mode : Secure
Utilize accurate stream : Yes
Defeat audio cache : Yes
Make use of C2 pointers : No
Read offset correction : 48
Overread into Lead-In and Lead-Out : No
Fill up missing offset samples with silence : Yes
Delete leading and trailing silent blocks : No
Null samples used in CRC calculations : Yes
Used interface : Native Win32 interface for Win NT & 2000
Used output format : User Defined Encoder
Selected bitrate : 768 kBit/s
Quality : High
Add ID3 tag : No
Command line compressor : C:\Program Files\Exact Audio Copy\FLAC\FLAC.EXE
Additional command line options : -6 -V -T "ARTIST=%a" -T "TITLE=%t" -T "ALBUM=%g" -T "DATE=%y" -T "TRACKNUMBER=%n" -T "GENRE=%m" -T "COMMENT=%e" %s -o %d
TOC of the extracted CD
Track | Start | Length | Start sector | End sector
---------------------------------------------------------
1 | 0:00.00 | 1:20.35 | 0 | 6034
2 | 1:20.35 | 2:49.26 | 6035 | 18735
3 | 4:09.61 | 8:19.06 | 18736 | 56166
4 | 12:28.67 | 4:55.41 | 56167 | 78332
5 | 17:24.33 | 2:03.61 | 78333 | 87618
6 | 19:28.19 | 1:21.37 | 87619 | 93730
7 | 20:49.56 | 1:06.37 | 93731 | 98717
8 | 21:56.18 | 2:13.46 | 98718 | 108738
9 | 24:09.64 | 7:54.22 | 108739 | 144310
10 | 32:04.11 | 3:25.52 | 144311 | 159737
11 | 35:29.63 | 8:28.03 | 159738 | 197840
12 | 43:57.66 | 6:37.63 | 197841 | 227678
Range status and errors
Selected range
Filename C:\Documents and Settings\S\Рабочий стол\Ohne 4 gespielt drei - Debut.wav
Peak level 100.0 %
Range quality 99.9 %
Test CRC FF324650
Copy CRC FF324650
Copy OK
No errors occurred
AccurateRip summary
Track 1 not present in database
Track 2 not present in database
Track 3 not present in database
Track 4 not present in database
Track 5 not present in database
Track 6 not present in database
Track 7 not present in database
Track 8 not present in database
Track 9 not present in database
Track 10 not present in database
Track 11 not present in database
Track 12 not present in database
None of the tracks are present in the AccurateRip database
End of status report
 
Содержание индексной карты (.CUE)
REM GENRE Avantgarde
REM DATE 2005
REM DISCID 820BDB0C
REM COMMENT "ExactAudioCopy v0.99pb5"
PERFORMER "Ohne 4 gespielt drei"
TITLE "Debut"
FILE "Ohne 4 gespielt drei - Debut.flac" WAVE
TRACK 01 AUDIO
TITLE "pankreas punk"
PERFORMER "Ohne 4 gespielt drei"
INDEX 01 00:00:00
TRACK 02 AUDIO
TITLE "fassanstich"
PERFORMER "Ohne 4 gespielt drei"
INDEX 00 01:18:35
INDEX 01 01:20:35
TRACK 03 AUDIO
TITLE "zick-zack"
PERFORMER "Ohne 4 gespielt drei"
INDEX 00 04:07:61
INDEX 01 04:09:61
TRACK 04 AUDIO
TITLE "old school"
PERFORMER "Ohne 4 gespielt drei"
INDEX 00 12:26:67
INDEX 01 12:28:67
TRACK 05 AUDIO
TITLE "nordkurve"
PERFORMER "Ohne 4 gespielt drei"
INDEX 00 17:22:33
INDEX 01 17:24:33
TRACK 06 AUDIO
TITLE "heimspiel"
PERFORMER "Ohne 4 gespielt drei"
INDEX 00 19:26:19
INDEX 01 19:28:19
TRACK 07 AUDIO
TITLE "knappenkarte"
PERFORMER "Ohne 4 gespielt drei"
INDEX 00 20:47:56
INDEX 01 20:49:56
TRACK 08 AUDIO
TITLE "dritte halbzeit"
PERFORMER "Ohne 4 gespielt drei"
INDEX 00 21:54:18
INDEX 01 21:56:18
TRACK 09 AUDIO
TITLE "red nosed puppet"
PERFORMER "Ohne 4 gespielt drei"
INDEX 00 24:07:64
INDEX 01 24:09:64
TRACK 10 AUDIO
TITLE "williamsburger"
PERFORMER "Ohne 4 gespielt drei"
INDEX 00 32:02:11
INDEX 01 32:04:11
TRACK 11 AUDIO
TITLE "wellness in der uckermark"
PERFORMER "Ohne 4 gespielt drei"
INDEX 00 35:27:63
INDEX 01 35:29:63
TRACK 12 AUDIO
TITLE "brisko & titus"
PERFORMER "Ohne 4 gespielt drei"
INDEX 00 43:55:66
INDEX 01 43:57:66
 
Состав
Katrin Scherer - baritonsaxophon, bassklarnette, altsaxophon, elektronic
Sven Decker - tenorsaxophon, bassklarinette, klarinette, elektronik
Bernd Oezsevim - schlagzeug, perkussion
Еще один альбом здесь
http://rutracker.org/forum/viewtopic.php?t=3312600
Другие раздачи
http://rutracker.org/forum/search.php?uid=17163016
Any questions -> support@pro-jazz.com. По всем вопросам пишите -> support@pro-jazz.com
11:09
138
Нет комментариев. Ваш будет первым!