Вы используете незарегистрированную версию компонента "Вкладки"!

Поиск

(Free Jazz, Experimental) Meltable Snaps It (Lytle/ Cartwright/Moss / Lewis / Marclay/ Zorn/ Cora/ Laswell - Points Blank - 1993, FLAC (image+.cue) lossless

(Free Jazz, Experimental) Meltable Snaps It (Lytle/ Cartwright/Moss / Lewis / Marclay/ Zorn/ Cora/ Laswell - Points Blank - 1993, FLAC (image+.cue) lossless
Треклист:
Meltable Snaps It (Lytle / Cartwright / Moss / Lewis / Marclay / Zorn/ Cora / Laswell) Points Blank
Жанр: Electronic, Jazz
Стиль: Free Jazz, Experimental
Страна-производитель диска: Austria
Год издания диска: 1993
Издатель (лейбл): NO MAN'S LAND
Номер по каталогу: NML 8604cd
Страна: USA/ Germany
Аудио кодек: FLAC (*.flac)
Тип рипа: image+.cue
Битрейт аудио: lossless
Продолжительность: 1:13:50
Источник (релизер): оригинальный диск
Наличие сканов в содержимом раздачи: да
Треклист:
1. Chigger Real 0:55
2. Crake 5:17
Cello, Performer [Cello Resonated Objects], Composed By - Tom Cora
Trombone, Performer [Toys], Composed By - George Lewis
3. Mike Me 1:11
4. Points Blank 16:24
Bass [Acoustic], Harmonica, Composed By - Peter Kowald
5. Hard Cash 3:05
Recorded By - Aaron Heller , David Laskin
Turntables, Composed By - Christian Marclay
6. Kissing In The Snow 4:23
Recorded By - Aaron Heller , David Laskin
Turntables, Composed By - Christian Marclay
7. Rugby 13:36
Cello, Performer [Cello Resonated Objects] - Tom Cora
Conductor, Composed By - John Zorn
Trombone, Performer [Toys] - George Lewis
8. 5 Years In 10 Seconds 0:10
9. Wing & Fin 3:54
10. Yowella / Faded In Hand Delivered In Practice 6:31
11. Elewhale Rising 0:41
12. Cooling Fingers 3:31
13. Possible Beast 1:46
14. Cane Cutters 6:50
15. This Notice Or No Notice 4:51
 
Лог создания рипа
Exact Audio Copy V1.0 beta 1 from 15. November 2010
EAC extraction logfile from 10. March 2011, 23:45
Lytle, Cartwright & Moss / Meltable Snaps It-Points Blank
Used drive : MATSHITADVD-RAM UJ890AS Adapter: 0 ID: 1
Read mode : Secure
Utilize accurate stream : Yes
Defeat audio cache : Yes
Make use of C2 pointers : No
Read offset correction : 102
Overread into Lead-In and Lead-Out : No
Fill up missing offset samples with silence : Yes
Delete leading and trailing silent blocks : No
Null samples used in CRC calculations : Yes
Used interface : Native Win32 interface for Win NT & 2000
Used output format : User Defined Encoder
Selected bitrate : 128 kBit/s
Quality : High
Add ID3 tag : No
Command line compressor : C:\Program Files (x86)\Exact Audio Copy\FLAC\FLAC.EXE
Additional command line options : -6 -V -T "ARTIST=%a" -T "TITLE=%t" -T "ALBUM=%g" -T "DATE=%y" -T "TRACKNUMBER=%n" -T "GENRE=%m" -T "COMMENT=%e" %j--picture="%i"%j %s -o %d
TOC of the extracted CD
Track | Start | Length | Start sector | End sector
---------------------------------------------------------
1 | 0:00.00 | 0:59.15 | 0 | 4439
2 | 0:59.15 | 5:21.20 | 4440 | 28534
3 | 6:20.35 | 1:14.70 | 28535 | 34154
4 | 7:35.30 | 16:27.38 | 34155 | 108217
5 | 24:02.68 | 3:08.72 | 108218 | 122389
6 | 27:11.65 | 4:26.35 | 122390 | 142374
7 | 31:38.25 | 13:36.13 | 142375 | 203587
8 | 45:14.38 | 0:10.15 | 203588 | 204352
9 | 45:24.53 | 3:55.02 | 204353 | 221979
10 | 49:19.55 | 6:34.00 | 221980 | 251529
11 | 55:53.55 | 0:43.53 | 251530 | 254807
12 | 56:37.33 | 3:36.55 | 254808 | 271062
13 | 60:14.13 | 1:49.55 | 271063 | 279292
14 | 62:03.68 | 6:55.60 | 279293 | 310477
15 | 68:59.53 | 4:51.17 | 310478 | 332319
Range status and errors
Selected range
Filename D:\Music\Lytle, Cartwright & Moss - Meltable Snaps It-Points Blank.wav
Peak level 100.0 %
Extraction speed 0.0 X
Range quality 100.0 %
Test CRC 4B5B4D42
Copy CRC 4B5B4D42
Copy OK
No errors occurred
AccurateRip summary
Track 1 not present in database
Track 2 not present in database
Track 3 not present in database
Track 4 not present in database
Track 5 not present in database
Track 6 not present in database
Track 7 not present in database
Track 8 not present in database
Track 9 not present in database
Track 10 not present in database
Track 11 not present in database
Track 12 not present in database
Track 13 not present in database
Track 14 not present in database
Track 15 not present in database
None of the tracks are present in the AccurateRip database
End of status report
 
Содержание индексной карты (.CUE)
REM GENRE "Progressive Rock"
REM DATE 1993
REM DISCID D0114E0F
REM COMMENT "ExactAudioCopy v1.0b1"
PERFORMER "Lytle, Cartwright & Moss"
TITLE "Meltable Snaps It-Points Blank"
FILE "Lytle, Cartwright & Moss - Meltable Snaps It-Points Blank.flac" WAVE
TRACK 01 AUDIO
TITLE "Chigger Reel"
PERFORMER "Lytle, Cartwright & Moss"
INDEX 01 00:00:00
TRACK 02 AUDIO
TITLE "Crake"
PERFORMER "Lytle, Cartwright & Moss"
INDEX 00 00:55:56
INDEX 01 00:59:15
TRACK 03 AUDIO
TITLE "Mike Me"
PERFORMER "Lytle, Cartwright & Moss"
INDEX 00 06:16:55
INDEX 01 06:20:35
TRACK 04 AUDIO
TITLE "Points Blank"
PERFORMER "Lytle, Cartwright & Moss"
INDEX 00 07:32:04
INDEX 01 07:35:30
TRACK 05 AUDIO
TITLE "Hard Cash"
PERFORMER "Lytle, Cartwright & Moss"
INDEX 00 23:59:67
INDEX 01 24:02:68
TRACK 06 AUDIO
TITLE "Kissing In The Snow"
PERFORMER "Lytle, Cartwright & Moss"
INDEX 00 27:08:11
INDEX 01 27:11:65
TRACK 07 AUDIO
TITLE "Rugby"
PERFORMER "Lytle, Cartwright & Moss"
INDEX 00 31:35:10
INDEX 01 31:38:25
TRACK 08 AUDIO
TITLE "5 Years In 10 Seconds"
PERFORMER "Lytle, Cartwright & Moss"
INDEX 01 45:14:38
INDEX 02 45:15:30
INDEX 03 45:16:38
INDEX 04 45:17:41
INDEX 05 45:18:45
INDEX 06 45:19:43
INDEX 07 45:20:40
INDEX 08 45:21:40
INDEX 09 45:22:16
INDEX 10 45:23:03
INDEX 11 45:23:58
TRACK 09 AUDIO
TITLE "Wing & Fin"
PERFORMER "Lytle, Cartwright & Moss"
INDEX 01 45:24:53
TRACK 10 AUDIO
TITLE "Yowella-Faded In Hand Delivered In Practice"
PERFORMER "Lytle, Cartwright & Moss"
INDEX 00 49:19:33
INDEX 01 49:19:55
TRACK 11 AUDIO
TITLE "Elewhale Rising"
PERFORMER "Lytle, Cartwright & Moss"
INDEX 00 55:51:58
INDEX 01 55:53:55
TRACK 12 AUDIO
TITLE "Cooling Fingers"
PERFORMER "Lytle, Cartwright & Moss"
INDEX 00 56:35:61
INDEX 01 56:37:33
TRACK 13 AUDIO
TITLE "Possible Beast"
PERFORMER "Lytle, Cartwright & Moss"
INDEX 00 60:09:30
INDEX 01 60:14:13
TRACK 14 AUDIO
TITLE "Cane Cutters"
PERFORMER "Lytle, Cartwright & Moss"
INDEX 00 62:00:54
INDEX 01 62:03:68
TRACK 15 AUDIO
TITLE "This Notice Or No Notice"
PERFORMER "Lytle, Cartwright & Moss"
INDEX 00 68:54:04
INDEX 01 68:59:53
Доп. информация: Track 1 to 4, 7 & 8 recorded at BC Studio, Brooklyn, New York. Track 5 & 6 recorded fall 1985 in Albany, New York during the fall 1985 New York State Council of The Arts New Music Network Tour. Track 9 to 15 recorded at Radio Station WXXI, Rochester, New York.
 
Состав
George Cartwright: saxophones, flutes, various bird & animal calls
Michael Lytle: clarinets, game calls, humzoo, electronics & voice
Davis Moss: multiple percussion & voice
Tom Cora: cello
Peter Kowal: acoustic bass and harmonica
Bill Laswell: electric bass
George Lewis: trombone, toys
Christian Marclay: turntables
John Zorn: conductor on "Rugby"
Martin Bisi: live 16 to 2 track mix down
Any questions -> support@pro-jazz.com. По всем вопросам пишите -> support@pro-jazz.com
09:35
175
Нет комментариев. Ваш будет первым!