Вы используете незарегистрированную версию компонента "Вкладки"!

Поиск

(Free Jazz, Experimental Big Band) William Parker & ICI Ensemble - Winter Sun Crying - 2011, FLAC (tracks+.cue), lossless

(Free Jazz, Experimental Big Band) William Parker & ICI Ensemble - Winter Sun Crying - 2011, FLAC (tracks+.cue), lossless
Треклист:
William Parker & ICI Ensemble / Winter Sun Crying

Жанр: Free Jazz, Experimental Big Band
Страна-производитель диска: Германия
Год издания диска: 2011
Издатель (лейбл): NEOS
Номер по каталогу: NEOS 41008
Страна: США, Германия
Аудиокодек: FLAC (*.flac)
Тип рипа: tracks+.cue
Битрейт аудио: lossless
Продолжительность: 1:02:56
Источник (релизер): вот.сиди (brus)
Наличие сканов в содержимом раздачи: нет
Треклист:
[01] Bells 08:10
[02] Train 02:59
[03] Winter Sun Crying 04:24
[04] Earth 03:12
[05] Moon 05:04
[06] Orphans 04:37
[07] Explosion 02:48
[08] Tears 03:03
[09] Hope 02:36
[10] Sky 03:14
[11] Grandmother 02:12
[12] Circle 04:00
[13] Hello 03:02
[14] Revolution 06:56
[15] Let’s Change the World 06:39
Live Recording
 
Лог создания рипа
X Lossless Decoder version 20110924 (136.3)
XLD extraction logfile from 2011-10-07 00:15:02 +0000
William Parker & ICI Ensemble / Winter Sun Crying
Used drive : OPTIARC DVD RW AD-5630A (revision 1AHM)
Ripper mode : XLD Secure Ripper
Disable audio cache : OK for the drive with a cache less than 1375KiB
Make use of C2 pointers : NO
Read offset correction : 48
Max retry count : 20
Gap status : Analyzed, Appended
TOC of the extracted CD
Track | Start | Length | Start sector | End sector
---------------------------------------------------------
1 | 00:00:00 | 08:10:15 | 0 | 36764
2 | 08:10:15 | 02:59:06 | 36765 | 50195
3 | 11:09:21 | 04:24:38 | 50196 | 70033
4 | 15:33:59 | 03:11:67 | 70034 | 84425
5 | 18:45:51 | 05:04:07 | 84426 | 107232
6 | 23:49:58 | 04:36:65 | 107233 | 127997
7 | 28:26:48 | 02:47:38 | 127998 | 140560
8 | 31:14:11 | 03:03:01 | 140561 | 154286
9 | 34:17:12 | 02:36:27 | 154287 | 166013
10 | 36:53:39 | 03:14:06 | 166014 | 180569
11 | 40:07:45 | 02:11:38 | 180570 | 190432
12 | 42:19:08 | 03:59:70 | 190433 | 208427
13 | 46:19:03 | 03:01:70 | 208428 | 222072
14 | 49:20:73 | 06:56:01 | 222073 | 253273
15 | 56:16:74 | 06:38:68 | 253274 | 283191
AccurateRip Summary
Disc not found in AccurateRip DB.
All Tracks
Album gain : 0.25 dB
Peak : 0.995850
Statistics
Read error : 0
Jitter error (maybe fixed) : 0
Retry sector count : 0
Damaged sector count : 0
Track 01
Filename : /FLAC/William Parker & ICI Ensemble - Winter Sun Crying (2010) [FLAC]/01 Bells.flac
Pre-gap length : 00:02:00
Track gain : 2.84 dB
Peak : 0.995850
CRC32 hash (test run) : BEA9FCAE
CRC32 hash : BEA9FCAE
CRC32 hash (skip zero) : 172FDF83
AccurateRip signature : 53A7F5CF
->Track not present in AccurateRip database.
Statistics
Read error : 0
Jitter error (maybe fixed) : 0
Retry sector count : 0
Damaged sector count : 0
Track 02
Filename : /FLAC/William Parker & ICI Ensemble - Winter Sun Crying (2010) [FLAC]/02 Train.flac
Track gain : 0.44 dB
Peak : 0.961151
CRC32 hash (test run) : D787AC7A
CRC32 hash : D787AC7A
CRC32 hash (skip zero) : FEB7874E
AccurateRip signature : CCCEFC45
->Track not present in AccurateRip database.
Statistics
Read error : 0
Jitter error (maybe fixed) : 0
Retry sector count : 0
Damaged sector count : 0
Track 03
Filename : /FLAC/William Parker & ICI Ensemble - Winter Sun Crying (2010) [FLAC]/03 Winter Sun Crying.flac
Track gain : -0.24 dB
Peak : 0.995575
CRC32 hash (test run) : E642B137
CRC32 hash : E642B137
CRC32 hash (skip zero) : 06FCB45A
AccurateRip signature : 53BDE692
->Track not present in AccurateRip database.
Statistics
Read error : 0
Jitter error (maybe fixed) : 0
Retry sector count : 0
Damaged sector count : 0
Track 04
Filename : /FLAC/William Parker & ICI Ensemble - Winter Sun Crying (2010) [FLAC]/04 Earth.flac
Track gain : 7.88 dB
Peak : 0.588470
CRC32 hash (test run) : 1B57A17B
CRC32 hash : 1B57A17B
CRC32 hash (skip zero) : E906F97E
AccurateRip signature : 26AACBF8
->Track not present in AccurateRip database.
Statistics
Read error : 0
Jitter error (maybe fixed) : 0
Retry sector count : 0
Damaged sector count : 0
Track 05
Filename : /FLAC/William Parker & ICI Ensemble - Winter Sun Crying (2010) [FLAC]/05 Moon.flac
Track gain : -0.78 dB
Peak : 0.986755
CRC32 hash (test run) : 0D4903C8
CRC32 hash : 0D4903C8
CRC32 hash (skip zero) : E5E42A6F
AccurateRip signature : F7721B78
->Track not present in AccurateRip database.
Statistics
Read error : 0
Jitter error (maybe fixed) : 0
Retry sector count : 0
Damaged sector count : 0
Track 06
Filename : /FLAC/William Parker & ICI Ensemble - Winter Sun Crying (2010) [FLAC]/06 Orphans.flac
Track gain : 1.18 dB
Peak : 0.984222
CRC32 hash (test run) : 7D8AD91A
CRC32 hash : 7D8AD91A
CRC32 hash (skip zero) : EFE6087C
AccurateRip signature : CD3C3E29
->Track not present in AccurateRip database.
Statistics
Read error : 0
Jitter error (maybe fixed) : 0
Retry sector count : 0
Damaged sector count : 0
Track 07
Filename : /FLAC/William Parker & ICI Ensemble - Winter Sun Crying (2010) [FLAC]/07 Explosion.flac
Track gain : 5.87 dB
Peak : 0.912750
CRC32 hash (test run) : 3A368C85
CRC32 hash : 3A368C85
CRC32 hash (skip zero) : AEEE7678
AccurateRip signature : 17F13C20
->Track not present in AccurateRip database.
Statistics
Read error : 0
Jitter error (maybe fixed) : 0
Retry sector count : 0
Damaged sector count : 0
Track 08
Filename : /FLAC/William Parker & ICI Ensemble - Winter Sun Crying (2010) [FLAC]/08 Tears.flac
Track gain : -0.26 dB
Peak : 0.995697
CRC32 hash (test run) : 08AE814D
CRC32 hash : 08AE814D
CRC32 hash (skip zero) : 33F0634F
AccurateRip signature : ACCAC692
->Track not present in AccurateRip database.
Statistics
Read error : 0
Jitter error (maybe fixed) : 0
Retry sector count : 0
Damaged sector count : 0
Track 09
Filename : /FLAC/William Parker & ICI Ensemble - Winter Sun Crying (2010) [FLAC]/09 Hope.flac
Track gain : 5.49 dB
Peak : 0.995483
CRC32 hash (test run) : 56663E21
CRC32 hash : 56663E21
CRC32 hash (skip zero) : 67DBF3AC
AccurateRip signature : 927D9FA9
->Track not present in AccurateRip database.
Statistics
Read error : 0
Jitter error (maybe fixed) : 0
Retry sector count : 0
Damaged sector count : 0
Track 10
Filename : /FLAC/William Parker & ICI Ensemble - Winter Sun Crying (2010) [FLAC]/10 Sky.flac
Track gain : 0.21 dB
Peak : 0.779480
CRC32 hash (test run) : 95CBE553
CRC32 hash : 95CBE553
CRC32 hash (skip zero) : 735F1FBD
AccurateRip signature : 1A48AB77
->Track not present in AccurateRip database.
Statistics
Read error : 0
Jitter error (maybe fixed) : 0
Retry sector count : 0
Damaged sector count : 0
Track 11
Filename : /FLAC/William Parker & ICI Ensemble - Winter Sun Crying (2010) [FLAC]/11 Grandmother.flac
Track gain : 7.77 dB
Peak : 0.414124
CRC32 hash (test run) : 2146684B
CRC32 hash : 2146684B
CRC32 hash (skip zero) : 99C8753F
AccurateRip signature : 7B36A510
->Track not present in AccurateRip database.
Statistics
Read error : 0
Jitter error (maybe fixed) : 0
Retry sector count : 0
Damaged sector count : 0
Track 12
Filename : /FLAC/William Parker & ICI Ensemble - Winter Sun Crying (2010) [FLAC]/12 Circle.flac
Track gain : 6.96 dB
Peak : 0.374054
CRC32 hash (test run) : 4603738F
CRC32 hash : 4603738F
CRC32 hash (skip zero) : E90E7467
AccurateRip signature : 9AC58A0E
->Track not present in AccurateRip database.
Statistics
Read error : 0
Jitter error (maybe fixed) : 0
Retry sector count : 0
Damaged sector count : 0
Track 13
Filename : /FLAC/William Parker & ICI Ensemble - Winter Sun Crying (2010) [FLAC]/13 Hello.flac
Track gain : 6.81 dB
Peak : 0.519012
CRC32 hash (test run) : 081FA1CE
CRC32 hash : 081FA1CE
CRC32 hash (skip zero) : 35F53854
AccurateRip signature : 52E288CE
->Track not present in AccurateRip database.
Statistics
Read error : 0
Jitter error (maybe fixed) : 0
Retry sector count : 0
Damaged sector count : 0
Track 14
Filename : /FLAC/William Parker & ICI Ensemble - Winter Sun Crying (2010) [FLAC]/14 Revolution.flac
Track gain : -2.41 dB
Peak : 0.992889
CRC32 hash (test run) : 6374425E
CRC32 hash : 6374425E
CRC32 hash (skip zero) : AF017F4D
AccurateRip signature : B037B558
->Track not present in AccurateRip database.
Statistics
Read error : 0
Jitter error (maybe fixed) : 0
Retry sector count : 0
Damaged sector count : 0
Track 15
Filename : /FLAC/William Parker & ICI Ensemble - Winter Sun Crying (2010) [FLAC]/15 Let's Change The World.flac
Track gain : 16.39 dB
Peak : 0.232971
CRC32 hash (test run) : DBA802EF
CRC32 hash : DBA802EF
CRC32 hash (skip zero) : 27C49F62
AccurateRip signature : 02A79D7B
->Track not present in AccurateRip database.
Statistics
Read error : 0
Jitter error (maybe fixed) : 0
Retry sector count : 0
Damaged sector count : 0
No errors occurred
End of status report
 
Содержание индексной карты (.CUE)
TITLE "Winter Sun Crying"
PERFORMER "William Parker & ICI Ensemble"
REM GENRE "Jazz"
REM DATE "2010"
REM DISCNUMBER 1
REM TOTALDISCS 1
REM DISCID D90EBF0F
REM REPLAYGAIN_ALBUM_GAIN 0.25 dB
REM REPLAYGAIN_ALBUM_PEAK 0.995850
FILE "01 Bells.flac" WAVE
TRACK 01 AUDIO
TITLE "Bells"
ISRC DEGF71040801
FLAGS DCP
REM REPLAYGAIN_TRACK_GAIN 2.84 dB
REM REPLAYGAIN_TRACK_PEAK 0.995850
INDEX 01 00:00:00
FILE "02 Train.flac" WAVE
TRACK 02 AUDIO
TITLE "Train"
ISRC DEGF71040802
FLAGS DCP
REM REPLAYGAIN_TRACK_GAIN 0.44 dB
REM REPLAYGAIN_TRACK_PEAK 0.961151
INDEX 01 00:00:00
FILE "03 Winter Sun Crying.flac" WAVE
TRACK 03 AUDIO
TITLE "Winter Sun Crying"
ISRC DEGF71040803
FLAGS DCP
REM REPLAYGAIN_TRACK_GAIN -0.24 dB
REM REPLAYGAIN_TRACK_PEAK 0.995575
INDEX 01 00:00:00
FILE "04 Earth.flac" WAVE
TRACK 04 AUDIO
TITLE "Earth"
ISRC DEGF71040804
FLAGS DCP
REM REPLAYGAIN_TRACK_GAIN 7.88 dB
REM REPLAYGAIN_TRACK_PEAK 0.588470
INDEX 01 00:00:00
FILE "05 Moon.flac" WAVE
TRACK 05 AUDIO
TITLE "Moon"
ISRC DEGF71040805
FLAGS DCP
REM REPLAYGAIN_TRACK_GAIN -0.78 dB
REM REPLAYGAIN_TRACK_PEAK 0.986755
INDEX 01 00:00:00
FILE "06 Orphans.flac" WAVE
TRACK 06 AUDIO
TITLE "Orphans"
ISRC DEGF71040806
FLAGS DCP
REM REPLAYGAIN_TRACK_GAIN 1.18 dB
REM REPLAYGAIN_TRACK_PEAK 0.984222
INDEX 01 00:00:00
FILE "07 Explosion.flac" WAVE
TRACK 07 AUDIO
TITLE "Explosion"
ISRC DEGF71040807
FLAGS DCP
REM REPLAYGAIN_TRACK_GAIN 5.87 dB
REM REPLAYGAIN_TRACK_PEAK 0.912750
INDEX 01 00:00:00
FILE "08 Tears.flac" WAVE
TRACK 08 AUDIO
TITLE "Tears"
ISRC DEGF71040808
FLAGS DCP
REM REPLAYGAIN_TRACK_GAIN -0.26 dB
REM REPLAYGAIN_TRACK_PEAK 0.995697
INDEX 01 00:00:00
FILE "09 Hope.flac" WAVE
TRACK 09 AUDIO
TITLE "Hope"
ISRC DEGF71040809
FLAGS DCP
REM REPLAYGAIN_TRACK_GAIN 5.49 dB
REM REPLAYGAIN_TRACK_PEAK 0.995483
INDEX 01 00:00:00
FILE "10 Sky.flac" WAVE
TRACK 10 AUDIO
TITLE "Sky"
ISRC DEGF71040810
FLAGS DCP
REM REPLAYGAIN_TRACK_GAIN 0.21 dB
REM REPLAYGAIN_TRACK_PEAK 0.779480
INDEX 01 00:00:00
FILE "11 Grandmother.flac" WAVE
TRACK 11 AUDIO
TITLE "Grandmother"
ISRC DEGF71040811
FLAGS DCP
REM REPLAYGAIN_TRACK_GAIN 7.77 dB
REM REPLAYGAIN_TRACK_PEAK 0.414124
INDEX 01 00:00:00
FILE "12 Circle.flac" WAVE
TRACK 12 AUDIO
TITLE "Circle"
ISRC DEGF71040812
FLAGS DCP
REM REPLAYGAIN_TRACK_GAIN 6.96 dB
REM REPLAYGAIN_TRACK_PEAK 0.374054
INDEX 01 00:00:00
FILE "13 Hello.flac" WAVE
TRACK 13 AUDIO
TITLE "Hello"
ISRC DEGF71040813
FLAGS DCP
REM REPLAYGAIN_TRACK_GAIN 6.81 dB
REM REPLAYGAIN_TRACK_PEAK 0.519012
INDEX 01 00:00:00
FILE "14 Revolution.flac" WAVE
TRACK 14 AUDIO
TITLE "Revolution"
ISRC DEGF71040814
FLAGS DCP
REM REPLAYGAIN_TRACK_GAIN -2.41 dB
REM REPLAYGAIN_TRACK_PEAK 0.992889
INDEX 01 00:00:00
FILE "15 Let's Change The World.flac" WAVE
TRACK 15 AUDIO
TITLE "Let's Change The World"
ISRC DEGF71040815
FLAGS DCP
REM REPLAYGAIN_TRACK_GAIN 16.39 dB
REM REPLAYGAIN_TRACK_PEAK 0.232971
INDEX 01 00:00:00
 
Лог проверки качества
AUDIOCHECKER v2.0 beta (build 457) - by Dester - opdester@freemail.hu
~~~~~~~~~~~~~~~~~~~~~~~~~~~~~~~~~~
-=== DO NOT EDIT THIS FILE! ===-
Path: ...\William Parker & ICI Ensemble - Winter Sun Crying (2010) [FLAC]
01 -=- 01 Bells.flac -=- CDDA (54%)
02 -=- 02 Train.flac -=- CDDA (100%)
03 -=- 03 Winter Sun Crying.flac -=- CDDA (100%)
04 -=- 04 Earth.flac -=- CDDA (100%)
05 -=- 05 Moon.flac -=- MPEG (90%)
06 -=- 06 Orphans.flac -=- CDDA (99%)
07 -=- 07 Explosion.flac -=- CDDA (92%)
08 -=- 08 Tears.flac -=- CDDA (100%)
09 -=- 09 Hope.flac -=- CDDA (99%)
10 -=- 10 Sky.flac -=- CDDA (100%)
11 -=- 11 Grandmother.flac -=- CDDA (43%)
12 -=- 12 Circle.flac -=- CDDA (99%)
13 -=- 13 Hello.flac -=- CDDA (100%)
14 -=- 14 Revolution.flac -=- CDDA (100%)
15 -=- 15 Let's Change The World.flac -=- MPEG (89%)
Summary 80,47% CDDA
68537316
 
Скриншот спектра частот
 
Состав
William Parker, double bass/piccolo trumpet/shakuhachi/double reeds
David Jäger, soprano saxophone/tenor saxophone
Roger Jannotta, alto saxophone/piccolo/flute/clarinet
Markus Heinze, baritone saxophone/tenor saxophone
Christofer Varner, trombone/sampler
Johanna Varner, cello
Martin Wolfrum, piano/keyboard
Gunnar Geisse, laptop/laptop guitar
Georg Janker, double bass/G2
Sunk Pöschl, drums
Any questions -> support@pro-jazz.com. По всем вопросам пишите -> support@pro-jazz.com
17:23
186
Нет комментариев. Ваш будет первым!