Вы используете незарегистрированную версию компонента "Вкладки"!

Поиск

(Free Jazz, Experimental Big Band) Sun Ra and His Astro Infinity Arkestra - Pathways To Unknown Worlds + Friendly Love - 2000, FLAC (tracks+.cue) lossless

(Free Jazz, Experimental Big Band) Sun Ra and His Astro Infinity Arkestra - Pathways To Unknown Worlds + Friendly Love - 2000, FLAC (tracks+.cue) lossless
Треклист:
Sun Ra and His Astro Infinity Arkestra / Pathways To Unknown Worlds + Friendly Love
Жанр: Free Jazz, Experimental Big Band
Год издания диска: 2000
Издатель (лейбл): Evidence Music, Inc.
Номер по каталогу: (ECD 22218-2)
Страна: Сатурн, США
Аудио кодек: FLAC (*.flac)
Тип рипа: tracks+.cue
Битрейт аудио: lossless
Продолжительность: 1:10:56
Источник (релизер): другой трекер (doughins)
Наличие сканов в содержимом раздачи: да
Треклист:
1 Pathways To Unknown Worlds 12:30
2 Untitled 5:23
3 Extension Out 7:34
4 Cosmo-Media 7:00
5 Friendly Love I 5:44
6 Friendly Love II 12:56
7 Friendly Love III 6:27
8 Friendly Love IV 12:50
Tracks 1, 3, 4 were originally issued in 1975 on the LP "Pathways To Unknown Worlds" (Impulse ASD-9298). Track 2 was intended for release on the same LP but not included.
Recorded at Variety Recording Studios, New York City, in 1973.
Tracks 5-8 comprise the previously unreleased album "Friendly Love", recorded in early 1973.
 
Лог создания рипа
EAC extraction logfile from 23. August 2008, 12:01 for CD
Sun Ra / Pathways To Unknown Worlds & Friendly Love
Used drive : SONY DVD-ROM DDU1615 Adapter: 0 ID: 0
Read mode : Secure with NO C2, accurate stream, disable cache
Read offset correction : 6
Overread into Lead-In and Lead-Out : No
Used output format : C:\Program Files\Flac\flac.exe (User Defined Encoder)
128 kBit/s
Additional command line options : -V -8 -T "artist=%a" -T "title=%t" -T "album=%g" -T "date=%y" -T "tracknumber=%n" -T "genre=%m" %s
Other options :
Fill up missing offset samples with silence : Yes
Delete leading and trailing silent blocks : No
Native Win32 interface for Win NT & 2000
Track 1
Filename D:\DOWNLOADS\__UPLOADS\Sun Ra - Pathways To Unknown Worlds & Friendly Love (1973) [FLAC]\01 - Pathways To Unknown Worlds.wav
Pre-gap length 0:00:02.00
Peak level 96.6 %
Track quality 99.9 %
Test CRC 9EDC47A6
Copy CRC 9EDC47A6
Copy OK
Track 2
Filename D:\DOWNLOADS\__UPLOADS\Sun Ra - Pathways To Unknown Worlds & Friendly Love (1973) [FLAC]\02 - Untitled.wav
Pre-gap length 0:00:03.80
Peak level 77.4 %
Track quality 100.0 %
Test CRC 7622EDD1
Copy CRC 7622EDD1
Copy OK
Track 3
Filename D:\DOWNLOADS\__UPLOADS\Sun Ra - Pathways To Unknown Worlds & Friendly Love (1973) [FLAC]\03 - Extension Out.wav
Pre-gap length 0:00:03.04
Peak level 96.6 %
Track quality 100.0 %
Test CRC FC991193
Copy CRC FC991193
Copy OK
Track 4
Filename D:\DOWNLOADS\__UPLOADS\Sun Ra - Pathways To Unknown Worlds & Friendly Love (1973) [FLAC]\04 - Cosmo-Media.wav
Pre-gap length 0:00:02.90
Peak level 96.6 %
Track quality 99.9 %
Test CRC B4699091
Copy CRC B4699091
Copy OK
Track 5
Filename D:\DOWNLOADS\__UPLOADS\Sun Ra - Pathways To Unknown Worlds & Friendly Love (1973) [FLAC]\05 - Friendly Love I.wav
Pre-gap length 0:00:05.97
Peak level 96.6 %
Track quality 100.0 %
Test CRC 8B3F2E47
Copy CRC 8B3F2E47
Copy OK
Track 6
Filename D:\DOWNLOADS\__UPLOADS\Sun Ra - Pathways To Unknown Worlds & Friendly Love (1973) [FLAC]\06 - Friendly Love II.wav
Pre-gap length 0:00:02.40
Peak level 96.6 %
Track quality 100.0 %
Test CRC E8237560
Copy CRC E8237560
Copy OK
Track 7
Filename D:\DOWNLOADS\__UPLOADS\Sun Ra - Pathways To Unknown Worlds & Friendly Love (1973) [FLAC]\07 - Friendly Love III.wav
Pre-gap length 0:00:03.53
Peak level 96.6 %
Track quality 100.0 %
Test CRC 42488309
Copy CRC 42488309
Copy OK
Track 8
Filename D:\DOWNLOADS\__UPLOADS\Sun Ra - Pathways To Unknown Worlds & Friendly Love (1973) [FLAC]\08 - Friendly Love IV.wav
Pre-gap length 0:00:02.62
Peak level 97.7 %
Track quality 100.0 %
Test CRC FA1108EA
Copy CRC FA1108EA
Copy OK
No errors occured
End of status report
 
Содержание индексной карты (.CUE)
REM GENRE Jazz
REM DATE 1973
REM DISCID 7710A008
REM COMMENT "ExactAudioCopy v0.95b3"
PERFORMER "Sun Ra"
TITLE "Pathways To Unknown Worlds & Friendly Love"
FILE "Sun Ra - Pathways To Unknown Worlds & Friendly Love (1973) [FLAC]\01 - Pathways To Unknown Worlds.wav" WAVE
TRACK 01 AUDIO
TITLE "Pathways To Unknown Worlds"
PERFORMER "Sun Ra"
INDEX 01 00:00:00
TRACK 02 AUDIO
TITLE "Untitled"
PERFORMER "Sun Ra"
INDEX 00 12:30:70
FILE "Sun Ra - Pathways To Unknown Worlds & Friendly Love (1973) [FLAC]\02 - Untitled.wav" WAVE
INDEX 01 00:00:00
TRACK 03 AUDIO
TITLE "Extension Out"
PERFORMER "Sun Ra"
INDEX 00 05:23:72
FILE "Sun Ra - Pathways To Unknown Worlds & Friendly Love (1973) [FLAC]\03 - Extension Out.wav" WAVE
INDEX 01 00:00:00
TRACK 04 AUDIO
TITLE "Cosmo-Media"
PERFORMER "Sun Ra"
INDEX 00 07:34:62
FILE "Sun Ra - Pathways To Unknown Worlds & Friendly Love (1973) [FLAC]\04 - Cosmo-Media.wav" WAVE
INDEX 01 00:00:00
TRACK 05 AUDIO
TITLE "Friendly Love I"
PERFORMER "Sun Ra"
INDEX 00 07:01:27
FILE "Sun Ra - Pathways To Unknown Worlds & Friendly Love (1973) [FLAC]\05 - Friendly Love I.wav" WAVE
INDEX 01 00:00:00
TRACK 06 AUDIO
TITLE "Friendly Love II"
PERFORMER "Sun Ra"
INDEX 00 05:45:07
FILE "Sun Ra - Pathways To Unknown Worlds & Friendly Love (1973) [FLAC]\06 - Friendly Love II.wav" WAVE
INDEX 01 00:00:00
TRACK 07 AUDIO
TITLE "Friendly Love III"
PERFORMER "Sun Ra"
INDEX 00 12:56:55
FILE "Sun Ra - Pathways To Unknown Worlds & Friendly Love (1973) [FLAC]\07 - Friendly Love III.wav" WAVE
INDEX 01 00:00:00
TRACK 08 AUDIO
TITLE "Friendly Love IV"
PERFORMER "Sun Ra"
INDEX 00 06:28:08
FILE "Sun Ra - Pathways To Unknown Worlds & Friendly Love (1973) [FLAC]\08 - Friendly Love IV.wav" WAVE
INDEX 01 00:00:00
 
Лог проверки качества
AUDIOCHECKER v2.0 beta (build 457) - by Dester - opdester@freemail.hu
~~~~~~~~~~~~~~~~~~~~~~~~~~~~~~~~~~
-=== DO NOT EDIT THIS FILE! ===-
Path: ...\Sun Ra - Pathways To Unknown Worlds & Friendly Love (1973) [FLAC]
1 -=- 01 - Pathways To Unknown Worlds.flac -=- CDDA (100%)
2 -=- 02 - Untitled.flac -=- CDDA (100%)
3 -=- 03 - Extension Out.flac -=- CDDA (100%)
4 -=- 04 - Cosmo-Media.flac -=- CDDA (100%)
5 -=- 05 - Friendly Love I.flac -=- CDDA (99%)
6 -=- 06 - Friendly Love II.flac -=- CDDA (100%)
7 -=- 07 - Friendly Love III.flac -=- CDDA (100%)
8 -=- 08 - Friendly Love IV.flac -=- CDDA (100%)
Summary 99,88% CDDA
84623268
 
Состав
Sun Ra Primary Artist
Marshall Allen Alto Saxophone, Oboe
Ronnie Boykins Bass
Akh Tal Ebah Flugelhorn, Mellophonium, Percussion
John Gilmore Tenor Saxophone, Timbales
Kwame Hadi Conga, Percussion, Trumpet
James Jacson Drums
Clifford Jarvis Drums
Eloe Omoe Alto Clarinet, Bass Clarinet, Percussion
По всем вопросам пишите личное сообщение пользователю M0p94ok.
06:05
287
Нет комментариев. Ваш будет первым!