Поиск

(Free Jazz, Ethnic Jazz) Burany Trio - Starless Dark Night - 2000, FLAC (tracks+.cue) lossless

Треклист:
Burany Trio - Starless Dark Night
Жанр: Free Jazz, Ethno Jazz
Страна-производитель диска: Hungary
Год издания диска: 2000
Издатель (лейбл): Győr Free Harmónia Produkció
Номер по каталогу: HCD 155
Аудио кодек: FLAC (*.flac)
Тип рипа: tracks+.cue
Битрейт аудио: lossless
Продолжительность: 1:04:23
Источник (релизер): собственный рип с оригинального диска.
Наличие сканов в содержимом раздачи: да
Треклист:
01. Swallow (to my Master)
02. Wooden headboards
03. Doodle
04. Signals
05. Starless dark night (Folk song from Magyarszovát)
 
Лог создания рипа
Exact Audio Copy V0.99 prebeta 5 from 4. May 2009
EAC extraction logfile from 6. April 2011, 19:17
Burany Trio / Starless dark night
Used drive : TSSTcorpCDDVDW SH-S222A Adapter: 1 ID: 0
Read mode : Secure
Utilize accurate stream : Yes
Defeat audio cache : Yes
Make use of C2 pointers : No
Read offset correction : 6
Overread into Lead-In and Lead-Out : No
Fill up missing offset samples with silence : Yes
Delete leading and trailing silent blocks : No
Null samples used in CRC calculations : Yes
Used interface : Installed external ASPI interface
Gap handling : Appended to previous track
Used output format : User Defined Encoder
Selected bitrate : 768 kBit/s
Quality : High
Add ID3 tag : No
Command line compressor : C:\Tool\Compress\FLAC\flac.exe
Additional command line options : -8 -V -T "ARTIST=%a" -T "TITLE=%t" -T "ALBUM=%g" -T "DATE=%y" -T "TRACKNUMBER=%n" -T "TOTALTRACKS=%x" -T "GENRE=%m" -T "ALBUM ARTIST=%v" -T "COMMENT=EAC V0.99 prebeta 5, Secure Mode, Test & Copy, AccurateRip, FLAC -8" %s
TOC of the extracted CD
Track | Start | Length | Start sector | End sector
---------------------------------------------------------
1 | 0:00.00 | 16:21.69 | 0 | 73643
2 | 16:21.69 | 11:34.32 | 73644 | 125725
3 | 27:56.26 | 5:06.42 | 125726 | 148717
4 | 33:02.68 | 13:40.59 | 148718 | 210276
5 | 46:43.52 | 17:42.23 | 210277 | 289949
Track 1
Filename C:\! UPLOAD\Burany Trio - Starless Dark Night (2000) [FLAC] {Harmonia}\01 - Swallow (To my Master).wav
Pre-gap length 0:00:02.00
Peak level 99.5 %
Track quality 99.9 %
Test CRC AB47CB44
Copy CRC AB47CB44
Track not present in AccurateRip database
Copy OK
Track 2
Filename C:\! UPLOAD\Burany Trio - Starless Dark Night (2000) [FLAC] {Harmonia}\02 - Wooden headboards.wav
Pre-gap length 0:00:04.00
Peak level 95.1 %
Track quality 100.0 %
Test CRC 7381851D
Copy CRC 7381851D
Track not present in AccurateRip database
Copy OK
Track 3
Filename C:\! UPLOAD\Burany Trio - Starless Dark Night (2000) [FLAC] {Harmonia}\03 - Doodle.wav
Pre-gap length 0:00:04.00
Peak level 100.0 %
Track quality 100.0 %
Test CRC 06B5E704
Copy CRC 06B5E704
Track not present in AccurateRip database
Copy OK
Track 4
Filename C:\! UPLOAD\Burany Trio - Starless Dark Night (2000) [FLAC] {Harmonia}\04 - Signals.wav
Pre-gap length 0:00:04.00
Peak level 99.2 %
Track quality 100.0 %
Test CRC 059DCFBA
Copy CRC 059DCFBA
Track not present in AccurateRip database
Copy OK
Track 5
Filename C:\! UPLOAD\Burany Trio - Starless Dark Night (2000) [FLAC] {Harmonia}\05 - Starless dark night.wav
Pre-gap length 0:00:04.00
Peak level 100.0 %
Track quality 100.0 %
Test CRC 735A9455
Copy CRC 735A9455
Track not present in AccurateRip database
Copy OK
None of the tracks are present in the AccurateRip database
No errors occurred
End of status report
 
Содержание индексной карты (.CUE)
REM GENRE Jazz
REM DATE 2000
REM DISCID 510F1A05
REM COMMENT "ExactAudioCopy v0.99pb5"
CATALOG 0000000000000
PERFORMER "Burany Trio"
TITLE "Starless dark night"
FILE "01 - Swallow (To my Master).wav" WAVE
TRACK 01 AUDIO
TITLE "Swallow (To my Master)"
PERFORMER "Burany Trio"
INDEX 01 00:00:00
TRACK 02 AUDIO
TITLE "Wooden headboards"
PERFORMER "Burany Trio"
INDEX 00 16:17:69
FILE "02 - Wooden headboards.wav" WAVE
INDEX 01 00:00:00
TRACK 03 AUDIO
TITLE "Doodle"
PERFORMER "Burany Trio"
INDEX 00 11:30:32
FILE "03 - Doodle.wav" WAVE
INDEX 01 00:00:00
TRACK 04 AUDIO
TITLE "Signals"
PERFORMER "Burany Trio"
INDEX 00 05:02:42
FILE "04 - Signals.wav" WAVE
INDEX 01 00:00:00
TRACK 05 AUDIO
TITLE "Starless dark night"
PERFORMER "Burany Trio"
INDEX 00 13:36:59
FILE "05 - Starless dark night.wav" WAVE
INDEX 01 00:00:00
 
Состав
Burány Béla Pöcök – soprano and baritone saxophones
Benkő Róbert – double bass
Sárvári Kovács Zsolt – drums
with
Bognár Szilvia – vocal
Recorded at "Vasutas" Club, Győr, Dec. 8, 2000.
20:23
248
Нет комментариев. Ваш будет первым!