Вы используете незарегистрированную версию компонента "Вкладки"!

Поиск

( free jazz) Ellery Eskelin - Figure of Speech (1993), FLAC (tracks+.cue), lossless

( free jazz) Ellery Eskelin - Figure of Speech (1993), FLAC (tracks+.cue), lossless
Треклист:


Ellery Eskelin - Figure of Speech (1993)

Жанр: free jazz
Год выпуска: 1993
Издатель (лейбл):Soul Note/ 121232-2
Формат: FLAC (tracks+.cue)
Битрейт аудио: lossless
Продолжительность 52`47
Источник: what.cd
Drums, Percussion – Arto Tuncboyaciyan
Tenor Saxophone – Ellery Eskelin
Tuba – Joe Daley
Recorded July 28, 1991 at Westrax Studio, NY.

tracks
1 #107 8:28
2 Short Story 10:41
3 Figure Of Speech 16:46
4 Whispered 6:18
5 It Doesn't Wait 10:31


 
.log
There is no sound support configured!
Type: ROM, Vendor 'MATSHITA' Model 'DVD-R UJ-857 ' Revision 'HAE4' MMC+CDDA
176128 bytes buffer memory requested, 4 buffers, 13 sectors
#Cdda2wav version 2.01a32_darwin_7.4.0_power-macintosh_powerpc, libparanoia support
AUDIOtrack pre-emphasis copy-permitted tracktype channels
1- 5 no no audio 2
Table of Contents: total tracks:5, (total time 52:46.43)
1.( 8:28.60), 2.(10:41.68), 3.(16:46.55), 4.( 6:18.02), 5.(10:31.08),
Table of Contents: starting sectors
1.( 32), 2.( 38192), 3.( 86335), 4.( 161840), 5.( 190192),
lead-out( 237525)
CDINDEX discid: .bZz.omT28tCa5o5g0UyQXqB2Ak-
CDDB discid: 0x350c5f05 CDDBP titles: resolved
CD-Text: not detected
CD-Extra: not detected
Album title: 'Figure Of Speech' [from Ellery Eskelin]
Track 1: '#107'
Track 2: 'Short Story'
Track 3: 'Figure Of Speech'
Track 4: 'Whispered'
Track 5: 'It Doesn't Wait'
samplefile size will be 558583580 bytes.
recording 3166.5733 seconds stereo with 16 bits @ 44100.0 Hz ->'audio'...
using lib paranoia for reading.
percent_done:
0%
0%
1%
2%
3%
4%
5%
6%
7%
8%
9%
10%
11%
12%
13%
14%
15%
16%
17%
18%
19%
20%
21%
22%
23%
24%
25%
26%
27%
28%
29%
30%
31%
32%
33%
34%
35%
36%
37%
38%
39%
40%
41%
42%
43%
44%
45%
46%
47%
48%
49%
50%
51%
52%
53%
54%
55%
56%
57%
58%
59%
60%
61%
62%
63%
64%
65%
66%
67%
68%
69%
70%
71%
72%
73%
74%
75%
76%
77%
78%
79%
80%
81%
82%
83%
84%
85%
86%
87%
88%
89%
90%
91%
92%
93%
94%
95%
96%
97%
98%
99%
100% track 1 '#107' recorded with minor problems
100% 0 rderr, 0 skip, 0 atom, 2 edge, 0 drop, 1 dup, 0 drift
100% 515 overlap(0.5 .. 5.686)
0%
1%
2%
3%
4%
5%
6%
7%
8%
9%
10%
11%
12%
13%
14%
15%
16%
17%
18%
19%
20%
21%
22%
23%
24%
25%
26%
27%
28%
29%
30%
31%
32%
33%
34%
35%
36%
37%
38%
39%
40%
41%
42%
43%
44%
45%
46%
47%
48%
49%
50%
51%
52%
53%
54%
55%
56%
57%
58%
59%
60%
61%
62%
63%
64%
65%
66%
67%
68%
69%
70%
71%
72%
73%
74%
75%
76%
77%
78%
79%
80%
81%
82%
83%
84%
85%
86%
87%
88%
89%
90%
91%
92%
93%
94%
95%
96%
97%
98%
99%
100% track 2 'Short Story' recorded successfully
100% 0 rderr, 0 skip, 0 atom, 0 edge, 0 drop, 0 dup, 0 drift
100% 682 overlap(0.5 .. 5.686)
0%
1%
2%
3%
4%
5%
6%
7%
8%
9%
10%
11%
12%
13%
14%
15%
16%
17%
18%
19%
20%
21%
22%
23%
24%
25%
26%
27%
28%
29%
30%
31%
32%
33%
34%
35%
36%
37%
38%
39%
40%
41%
42%
43%
44%
45%
46%
47%
48%
49%
50%
51%
52%
53%
54%
55%
56%
57%
58%
59%
60%
61%
62%
63%
64%
65%
66%
67%
68%
69%
70%
71%
72%
73%
74%
75%
76%
77%
78%
79%
80%
81%
82%
83%
84%
85%
86%
87%
88%
89%
90%
91%
92%
93%
94%
95%
96%
97%
98%
99%
100% track 3 'Figure Of Speech' recorded with minor problems
100% 0 rderr, 0 skip, 0 atom, 2 edge, 0 drop, 0 dup, 1 drift
100% 1022 overlap(0.5 .. 3.791)
0%
1%
2%
3%
4%
5%
6%
7%
8%
9%
10%
11%
12%
13%
14%
15%
16%
17%
18%
19%
20%
21%
22%
23%
24%
25%
26%
27%
28%
29%
30%
31%
32%
33%
34%
35%
36%
37%
38%
39%
40%
41%
42%
43%
44%
45%
46%
47%
48%
49%
50%
51%
52%
53%
54%
55%
56%
57%
58%
59%
60%
61%
62%
63%
64%
65%
66%
67%
68%
69%
70%
71%
72%
73%
74%
75%
76%
77%
78%
79%
80%
81%
82%
83%
84%
85%
86%
87%
88%
89%
90%
91%
92%
93%
94%
95%
96%
97%
98%
99%
100% track 4 'Whispered' recorded with minor problems
100% 0 rderr, 0 skip, 0 atom, 1 edge, 0 drop, 0 dup, 1 drift
100% 435 overlap(2.204 .. 12)
0%
1%
2%
3%
4%
5%
6%
7%
8%
9%
10%
11%
12%
13%
14%
15%
16%
17%
18%
19%
20%
21%
22%
23%
24%
25%
26%
27%
28%
29%
30%
31%
32%
33%
34%
35%
36%
37%
38%
39%
40%
41%
42%
43%
44%
45%
46%
47%
48%
49%
50%
51%
52%
53%
54%
55%
56%
57%
58%
59%
60%
61%
62%
63%
64%
65%
66%
67%
68%
69%
70%
71%
72%
73%
74%
75%
76%
77%
78%
79%
80%
81%
82%
83%
84%
85%
86%
87%
88%
89%
90%
91%
92%
93%
94%
95%
96%
97%
98%
99%
100% track 5 'It Doesn't Wait' recorded successfully
100% 0 rderr, 0 skip, 0 atom, 0 edge, 0 drop, 0 dup, 0 drift
100% 637 overlap(0.5 .. 4.959)
 
.cue
REM ACCURATERIPID 000ae584-003340ab-350c5f05
REM COMMENT "CUETools generated dummy CUE sheet"
PERFORMER "Ellery Eskelin"
TITLE "Figure of Speech"
REM DATE 1993
FILE "01 - #107.flac" WAVE
TRACK 01 AUDIO
PERFORMER "Ellery Eskelin"
TITLE "#107"
PREGAP 00:00:32
INDEX 01 00:00:00
FILE "02 - Short Story.flac" WAVE
TRACK 02 AUDIO
PERFORMER "Ellery Eskelin"
TITLE "Short Story"
INDEX 01 00:00:00
FILE "03 - Figure Of Speech.flac" WAVE
TRACK 03 AUDIO
PERFORMER "Ellery Eskelin"
TITLE "Figure Of Speech"
INDEX 01 00:00:00
FILE "04 - Whispered.flac" WAVE
TRACK 04 AUDIO
PERFORMER "Ellery Eskelin"
TITLE "Whispered"
INDEX 01 00:00:00
FILE "05 - It Doesn't Wait.flac" WAVE
TRACK 05 AUDIO
PERFORMER "Ellery Eskelin"
TITLE "It Doesn't Wait"
INDEX 01 00:00:00
 
.accurip
[CUETools log; Date: 12/12/12 04:20:11; Version: 2.1.2a]
Pregap length 00:00:32.
[CTDB TOCID: PkB6zEy.uRmQqwXFjSRJsxJMAl8-] found.
[ CTDBID ] Status
[db883cb8] (6/6) No match
[AccurateRip ID: 000ae584-003340ab-350c5f05] found.
Track [ CRC ] Status
01 [2c35cb4e] (0/6) No match
02 [36c037ab] (0/6) No match
03 [cee44ec0] (0/6) No match
04 [30f8eb45] (0/6) No match
05 [57a9e35a] (0/6) No match
Offsetted by -2735:
01 [33ce83df] (0/6) No match
02 [c8c387bf] (0/6) No match
03 [3343c90e] (0/6) No match but offset
04 [c46263aa] (0/6) No match
05 [1da2179a] (0/6) No match
Offsetted by -2127:
01 [05ddf61c] (0/6) No match
02 [24ff6ae2] (6/6) Accurately ripped
03 [3335a8bc] (0/6) No match
04 [7b78b99c] (0/6) No match
05 [639f5341] (0/6) No match
Offsetted by 102:
01 [8eb8636a] (0/6) No match but offset
02 [5d842bad] (0/6) No match
03 [c361e5aa] (0/6) No match
04 [77657165] (0/6) No match
05 [6de5c684] (0/6) No match
Track Peak [ CRC32 ] [W/O NULL]
-- 100.0 [C9D9D90A] [038281B8]
01 96.4 [83C562CB] [4CC4B58B]
02 100.0 [CEE010AA] [EE2F530D]
03 87.8 [82E77716] [6F03713D]
04 83.6 [E8F9E440] [201465D6]
05 85.0 [0CD328F9] [29B42565]
 
.auCDtect
auCDtect: CD records authenticity detector, version 0.8.2
Copyright (c) 2004 Oleg Berngardt. All rights reserved.
Copyright (c) 2004 Alexander Djourik. All rights reserved.
------------------------------------------------------------
Processing file: [01 - #107.wav]
------------------------------------------------------------
This track looks like CDDA with probability 100%
------------------------------------------------------------
Processing file: [02 - Short Story.wav]
------------------------------------------------------------
This track looks like CDDA with probability 100%
------------------------------------------------------------
Processing file: [03 - Figure Of Speech.wav]
------------------------------------------------------------
This track looks like CDDA with probability 100%
------------------------------------------------------------
Processing file: [04 - Whispered.wav]
------------------------------------------------------------
This track looks like CDDA with probability 100%
------------------------------------------------------------
Processing file: [05 - It Doesn't Wait.wav]
------------------------------------------------------------
This track looks like CDDA with probability 99%
------------------------------------------------------------
Final Conclusion:
------------------------------------------------------------
These tracks looks like CDDA with probability 100%

другие релизы
Any questions -> support@pro-jazz.com. По всем вопросам пишите -> support@pro-jazz.com
06:19
169
Нет комментариев. Ваш будет первым!