Вы используете незарегистрированную версию компонента "Вкладки"!

Поиск

(Free Jazz) Die Like A Dog Quartet (Peter Brotzmann / Toshinori Kondo / William Parker / Hamid Drake) The Complete FMP Recordings 4 CD set - 2007, FLAC (image+.cue), lossless

(Free Jazz) Die Like A Dog Quartet (Peter Brotzmann / Toshinori Kondo / William Parker / Hamid Drake) The Complete FMP Recordings 4 CD set - 2007, FLAC (image+.cue), lossless
Треклист:
Die Like A Dog Quartet (Peter Brotzmann / Toshinori Kondo / William Parker / Hamid Drake) - The Complete FMP Recordings 4 CD set
Жанр: Free Jazz
Год выпуска диска: 2007
Производитель диска: Germany (Jazzwerkstatt)
Аудио кодек: FLAC
Тип рипа: image+.cue
Битрейт аудио: lossless
Продолжительность: 72.43 + 67.44 + 59.14 + 70.09
Трэклист:
 
CD 1 - Die Like A Dog - 'Fragments Of Music, Life And Death Of Albert Ayler' - originally released as FMP 064 in 1993
no.1 : 21'47"
no.2 : 15'59"
A : saint james infirmary (don redman) 4'07"
B : 10'37"
C : saint james infirmary (don redman) 1'15"
no.3 : 18'51"
A : two birds in a feather (p.brotzmann) 1'23"
B : 17'28"
no.4 : 16'05"
for no. 1, 2B, 3B, 4B was used very short quotations out of ALBERT AYLER's music in different variations. (prophet, ghosts, spirits, bells and others)
 
eac log CD 1
Exact Audio Copy V0.99 prebeta 4 from 23. January 2008
Отчёт EAC об извлечении, выполненном 27. февраля 2009, 15:02
Peter Brotzmann / Die Like A Dog
Дисковод: Optiarc DVD RW AD-7170A Adapter: 0 ID: 1
Режим чтения : Достоверность
Использование точного потока : Да
Отключение кэша аудио : Да
Использование указателей C2 : Нет
Коррекция смещения при чтении : 48
Способность читать области Lead-in и Lead-out : Нет
Заполнение пропущенных сэмплов тишиной : Да
Удаление блоков с тишиной в начале и конце : Нет
При вычислениях CRC использовались нулевые сэмплы : Да
Интерфейс : Установленный внешний ASPI-интерфейс
Выходной формат : Пользовательский кодировщик
Выбранный битрейт : 768 kBit/s
Качество : Высокий
Добавление ID3-тэга : Нет
Утилита сжатия : C:\Program Files (x86)\Exact Audio Copy\FLAC\FLAC.EXE
Дополнительные параметры : -6 -V -T "ARTIST=%a" -T "TITLE=%t" -T "ALBUM=%g" -T "DATE=%y" -T "TRACKNUMBER=%n" -T "GENRE=%m" -T "COMMENT=%e" %s -o %d
TOC извлечённого CD
Трек | Старт | Длительность | Начальный сектор | Конечный сектор
---------------------------------------------------------------------
1 | 0:00.00 | 21:48.12 | 0 | 98111
2 | 21:48.12 | 15:58.63 | 98112 | 170024
3 | 37:47.00 | 18:50.51 | 170025 | 254825
4 | 56:37.51 | 16:05.25 | 254826 | 327225
Характеристики диапазона извлечения и сообщения об ошибках
Выбранный диапазон
Имя файла C:\Users\Роман\Documents\Peter Brotzmann - Die Like A Dog.wav
Пиковый уровень 99.5 %
Качество диапазона 99.9 %
CRC копии 06EA45FF
Копирование... OK
Ошибок не произошло
AccurateRip: сводка
Трек 1 нет в базе данных
Трек 2 нет в базе данных
Трек 3 нет в базе данных
Трек 4 нет в базе данных
Ни одного трека нет в базе AccurateRip
Конец отчёта
 
CD 2 - 'Little Birds Have Fast Hearts No.1' - originally released as FMP 097 in 1997
1. Part 1 : 45'44"
2. Part 2 : 21'59"
 
eac log CD 2
Exact Audio Copy V0.99 prebeta 4 from 23. January 2008
Отчёт EAC об извлечении, выполненном 27. февраля 2009, 12:15
Die Like A Dog Quartet / Little Birds Have Fast Hearts No 1
Дисковод: Optiarc DVD RW AD-7170A Adapter: 0 ID: 1
Режим чтения : Достоверность
Использование точного потока : Да
Отключение кэша аудио : Да
Использование указателей C2 : Нет
Коррекция смещения при чтении : 48
Способность читать области Lead-in и Lead-out : Нет
Заполнение пропущенных сэмплов тишиной : Да
Удаление блоков с тишиной в начале и конце : Нет
При вычислениях CRC использовались нулевые сэмплы : Да
Интерфейс : Установленный внешний ASPI-интерфейс
Выходной формат : Пользовательский кодировщик
Выбранный битрейт : 768 kBit/s
Качество : Высокий
Добавление ID3-тэга : Нет
Утилита сжатия : C:\Program Files (x86)\Exact Audio Copy\FLAC\FLAC.EXE
Дополнительные параметры : -6 -V -T "ARTIST=%a" -T "TITLE=%t" -T "ALBUM=%g" -T "DATE=%y" -T "TRACKNUMBER=%n" -T "GENRE=%m" -T "COMMENT=%e" %s -o %d
TOC извлечённого CD
Трек | Старт | Длительность | Начальный сектор | Конечный сектор
---------------------------------------------------------------------
1 | 0:00.00 | 45:45.08 | 0 | 205882
2 | 45:45.08 | 21:59.08 | 205883 | 304815
Характеристики диапазона извлечения и сообщения об ошибках
Выбранный диапазон
Имя файла C:\Users\Роман\Documents\Die Like A Dog Quartet - Little Birds Have Fast Hearts No 1.wav
Пиковый уровень 98.0 %
Качество диапазона 99.9 %
CRC копии BB358103
Копирование... OK
Ошибок не произошло
AccurateRip: сводка
Трек 1 нет в базе данных
Трек 2 нет в базе данных
Ни одного трека нет в базе AccurateRip
Конец отчёта
 
CD 3 - 'Little Birds Have Fast Hearts No.2' - originally released as FMP 101 in 1997
1. Part 3 : 20'19"
2. Part 4 : 25'41"
3. Part 5 : 8'48"
4. Part 6 : 4'25"
 
eac log CD 3
Exact Audio Copy V0.99 prebeta 4 from 23. January 2008
Отчёт EAC об извлечении, выполненном 27. февраля 2009, 13:07
Die Like a Dog Quartet / Little Birds Have Fast Hearts vol. 2
Дисковод: Optiarc DVD RW AD-7170A Adapter: 0 ID: 1
Режим чтения : Достоверность
Использование точного потока : Да
Отключение кэша аудио : Да
Использование указателей C2 : Нет
Коррекция смещения при чтении : 48
Способность читать области Lead-in и Lead-out : Нет
Заполнение пропущенных сэмплов тишиной : Да
Удаление блоков с тишиной в начале и конце : Нет
При вычислениях CRC использовались нулевые сэмплы : Да
Интерфейс : Установленный внешний ASPI-интерфейс
Выходной формат : Пользовательский кодировщик
Выбранный битрейт : 768 kBit/s
Качество : Высокий
Добавление ID3-тэга : Нет
Утилита сжатия : C:\Program Files (x86)\Exact Audio Copy\FLAC\FLAC.EXE
Дополнительные параметры : -6 -V -T "ARTIST=%a" -T "TITLE=%t" -T "ALBUM=%g" -T "DATE=%y" -T "TRACKNUMBER=%n" -T "GENRE=%m" -T "COMMENT=%e" %s -o %d
TOC извлечённого CD
Трек | Старт | Длительность | Начальный сектор | Конечный сектор
---------------------------------------------------------------------
1 | 0:00.00 | 20:19.26 | 0 | 91450
2 | 20:19.26 | 25:41.32 | 91451 | 207057
3 | 46:00.58 | 8:48.15 | 207058 | 246672
4 | 54:48.73 | 4:24.60 | 246673 | 266532
Характеристики диапазона извлечения и сообщения об ошибках
Выбранный диапазон
Имя файла C:\Users\Роман\Documents\Die Like a Dog Quartet - Little Birds Have Fast Hearts vol. 2.wav
Пиковый уровень 100.0 %
Качество диапазона 99.9 %
CRC копии 25990A9A
Копирование... OK
Ошибок не произошло
AccurateRip: сводка
Трек 1 нет в базе данных
Трек 2 нет в базе данных
Трек 3 нет в базе данных
Трек 4 нет в базе данных
Ни одного трека нет в базе AccurateRip
Конец отчёта
 
CD 4 - 'Aoyama Crows' - originally released as FMP 118 in 1999
1. Aoyama Crows 1 : 27'46"
2. Aoyama Crows 2 : 15'51"
3. Aoyama Crows 3 : 22'40"
4. Aoyama Crows 4 : 3'52"
 
eac log CD 4
Exact Audio Copy V0.99 prebeta 4 from 23. January 2008
Отчёт EAC об извлечении, выполненном 27. февраля 2009, 14:13
Die Like A Dog Quartet / Aoyama Crows
Дисковод: Optiarc DVD RW AD-7170A Adapter: 0 ID: 1
Режим чтения : Достоверность
Использование точного потока : Да
Отключение кэша аудио : Да
Использование указателей C2 : Нет
Коррекция смещения при чтении : 48
Способность читать области Lead-in и Lead-out : Нет
Заполнение пропущенных сэмплов тишиной : Да
Удаление блоков с тишиной в начале и конце : Нет
При вычислениях CRC использовались нулевые сэмплы : Да
Интерфейс : Установленный внешний ASPI-интерфейс
Выходной формат : Пользовательский кодировщик
Выбранный битрейт : 768 kBit/s
Качество : Высокий
Добавление ID3-тэга : Нет
Утилита сжатия : C:\Program Files (x86)\Exact Audio Copy\FLAC\FLAC.EXE
Дополнительные параметры : -6 -V -T "ARTIST=%a" -T "TITLE=%t" -T "ALBUM=%g" -T "DATE=%y" -T "TRACKNUMBER=%n" -T "GENRE=%m" -T "COMMENT=%e" %s -o %d
TOC извлечённого CD
Трек | Старт | Длительность | Начальный сектор | Конечный сектор
---------------------------------------------------------------------
1 | 0:00.00 | 27:45.45 | 0 | 124919
2 | 27:45.45 | 15:50.71 | 124920 | 196240
3 | 43:36.41 | 22:39.57 | 196241 | 298222
4 | 66:16.23 | 3:52.35 | 298223 | 315657
Характеристики диапазона извлечения и сообщения об ошибках
Выбранный диапазон
Имя файла C:\Users\Роман\Documents\Die Like A Dog Quartet - Aoyama Crows.wav
Пиковый уровень 83.8 %
Качество диапазона 99.9 %
CRC копии 1F432792
Копирование... OK
Ошибок не произошло
AccurateRip: сводка
Трек 1 нет в базе данных
Трек 2 нет в базе данных
Трек 3 нет в базе данных
Трек 4 нет в базе данных
Ни одного трека нет в базе AccurateRip
Конец отчёта
Доп. информация: PETER BROTZMANN - alto & tenor saxophones, tarogato, clarinet
TOSHINORI KONDO - trumpet, electronics
WILLIAM PARKER - double bass
HAMID DRAKE - drums, frame drum
Any questions -> support@pro-jazz.com. По всем вопросам пишите -> support@pro-jazz.com
08:40
177
Нет комментариев. Ваш будет первым!