Вы используете незарегистрированную версию компонента "Вкладки"!

Поиск

(Free Jazz) Dick Heckstall-Smith - John Stevens - Bird in Widnes - 1995, FLAC (tracks+.cue), lossless

(Free Jazz) Dick Heckstall-Smith - John Stevens - Bird in Widnes - 1995, FLAC (tracks+.cue), lossless
Треклист:
Dick Heckstall-Smith - John Stevens - Bird in Widnes
Жанр: Free Jazz
Страна-производитель диска: Germany
Год издания диска: 1995
Издатель (лейбл): Konnex Records
Номер по каталогу: KCD 5065
Аудиокодек: FLAC (*.flac)
Тип рипа: tracks+.cue
Битрейт аудио: lossless
Продолжительность: 46:47
Источник (релизер): собственный рип с оригинального диска.
Наличие сканов в содержимом раздачи: да
Треклист:
01. In & out
02. Demon dreaming
03. The dog watch
04. More of the same difference
05. Bird in widnes
06. Out & in
 
Лог создания рипа
Exact Audio Copy V0.99 prebeta 5 from 4. May 2009
EAC extraction logfile from 30. August 2011, 1:23
Dick-Heckstall-Smith-John Stevens / Bird In Widnes
Used drive : TSSTcorpCDDVDW SH-S222A Adapter: 1 ID: 0
Read mode : Secure
Utilize accurate stream : Yes
Defeat audio cache : Yes
Make use of C2 pointers : No
Read offset correction : 6
Overread into Lead-In and Lead-Out : No
Fill up missing offset samples with silence : Yes
Delete leading and trailing silent blocks : No
Null samples used in CRC calculations : Yes
Used interface : Installed external ASPI interface
Gap handling : Appended to previous track
Used output format : User Defined Encoder
Selected bitrate : 768 kBit/s
Quality : High
Add ID3 tag : No
Command line compressor : C:\Tool\Compress\FLAC\flac.exe
Additional command line options : -8 -V -T "ARTIST=%a" -T "TITLE=%t" -T "ALBUM=%g" -T "DATE=%y" -T "TRACKNUMBER=%n" -T "TOTALTRACKS=%x" -T "GENRE=%m" -T "ALBUM ARTIST=%v" -T "COMMENT=EAC V0.99 prebeta 5, Secure Mode, Test & Copy, AccurateRip, FLAC -8" %s
TOC of the extracted CD
Track | Start | Length | Start sector | End sector
---------------------------------------------------------
1 | 0:00.00 | 4:29.30 | 0 | 20204
2 | 4:29.30 | 8:27.07 | 20205 | 58236
3 | 12:56.37 | 7:02.25 | 58237 | 89911
4 | 19:58.62 | 9:04.53 | 89912 | 130764
5 | 29:03.40 | 16:45.10 | 130765 | 206149
6 | 45:48.50 | 1:00.57 | 206150 | 210706
Track 1
Filename C:\! UPLOAD\Dick Heckstall-Smith-John Stevens - Bird In Widness (1995) [FLAC] {Konnex}\01 - In & Out.wav
Pre-gap length 0:00:02.00
Peak level 98.0 %
Track quality 100.0 %
Test CRC D7313702
Copy CRC D7313702
Track not present in AccurateRip database
Copy OK
Track 2
Filename C:\! UPLOAD\Dick Heckstall-Smith-John Stevens - Bird In Widness (1995) [FLAC] {Konnex}\02 - Demon Dreaming.wav
Peak level 91.2 %
Track quality 100.0 %
Test CRC 945BCFD7
Copy CRC 945BCFD7
Track not present in AccurateRip database
Copy OK
Track 3
Filename C:\! UPLOAD\Dick Heckstall-Smith-John Stevens - Bird In Widness (1995) [FLAC] {Konnex}\03 - The Dog Watch.wav
Pre-gap length 0:00:03.76
Peak level 82.3 %
Track quality 100.0 %
Test CRC 451D8185
Copy CRC 451D8185
Track not present in AccurateRip database
Copy OK
Track 4
Filename C:\! UPLOAD\Dick Heckstall-Smith-John Stevens - Bird In Widness (1995) [FLAC] {Konnex}\04 - More Of The Same Difference.wav
Pre-gap length 0:00:02.25
Peak level 81.4 %
Track quality 100.0 %
Test CRC EF66466D
Copy CRC EF66466D
Track not present in AccurateRip database
Copy OK
Track 5
Filename C:\! UPLOAD\Dick Heckstall-Smith-John Stevens - Bird In Widness (1995) [FLAC] {Konnex}\05 - Bird In Widnes.wav
Pre-gap length 0:00:02.86
Peak level 83.9 %
Track quality 99.9 %
Test CRC F6A87E70
Copy CRC F6A87E70
Track not present in AccurateRip database
Copy OK
Track 6
Filename C:\! UPLOAD\Dick Heckstall-Smith-John Stevens - Bird In Widness (1995) [FLAC] {Konnex}\06 - Out & In.wav
Pre-gap length 0:00:01.16
Peak level 83.1 %
Track quality 99.8 %
Test CRC B9A5B3A4
Copy CRC B9A5B3A4
Track not present in AccurateRip database
Copy OK
None of the tracks are present in the AccurateRip database
No errors occurred
End of status report
 
Содержание индексной карты (.CUE)
REM GENRE Jazz
REM DATE 1995
REM DISCID 440AF906
REM COMMENT "ExactAudioCopy v0.99pb5"
CATALOG 0000000000000
PERFORMER "Dick-Heckstall-Smith-John Stevens"
TITLE "Bird In Widnes"
FILE "01 - In & Out.wav" WAVE
TRACK 01 AUDIO
TITLE "In & Out"
PERFORMER "Dick-Heckstall-Smith-John Stevens"
ISRC DED049500070
INDEX 01 00:00:00
FILE "02 - Demon Dreaming.wav" WAVE
TRACK 02 AUDIO
TITLE "Demon Dreaming"
PERFORMER "Dick-Heckstall-Smith-John Stevens"
ISRC DED049500071
INDEX 01 00:00:00
TRACK 03 AUDIO
TITLE "The Dog Watch"
PERFORMER "Dick-Heckstall-Smith-John Stevens"
ISRC DED049500072
INDEX 00 08:23:25
FILE "03 - The Dog Watch.wav" WAVE
INDEX 01 00:00:00
TRACK 04 AUDIO
TITLE "More Of The Same Difference"
PERFORMER "Dick-Heckstall-Smith-John Stevens"
ISRC DED049500073
INDEX 00 07:00:06
FILE "04 - More Of The Same Difference.wav" WAVE
INDEX 01 00:00:00
TRACK 05 AUDIO
TITLE "Bird In Widnes"
PERFORMER "Dick-Heckstall-Smith-John Stevens"
ISRC DED049500074
INDEX 00 09:01:63
FILE "05 - Bird In Widnes.wav" WAVE
INDEX 01 00:00:00
TRACK 06 AUDIO
TITLE "Out & In"
PERFORMER "Dick-Heckstall-Smith-John Stevens"
ISRC DED049500075
INDEX 00 16:43:73
FILE "06 - Out & In.wav" WAVE
INDEX 01 00:00:00
Доп. информация:
Recorded by Richie Stevens at Watershed Studios, London, 7 January 1993.
 
Состав
Dick Heckstall-Smith - saxophones
John Stevens - drums
Any questions -> support@pro-jazz.com. По всем вопросам пишите -> support@pro-jazz.com
16:32
144
Нет комментариев. Ваш будет первым!