Вы используете незарегистрированную версию компонента "Вкладки"!

Поиск

(free jazz) Dewey Redman - In London (1996), FLAC (tracks+.cue), lossless

(free jazz) Dewey Redman - In London (1996), FLAC (tracks+.cue), lossless
Треклист:

Dewey Redman - In London (1996)
Жанр: free jazz
Год издания диска: 1996
Номер по каталогу: Palmetto
Аудиокодек: FLAC (*.flac)
Тип рипа: tracks+.cue
Битрейт аудио: lossless
Продолжительность: 1`06`26
Источник (релизер): what.cd
Наличие сканов в содержимом раздачи: да
Cameron Brown Bass
Rita Marcotulli Piano
Dewey Redman Arranger, Sax (Tenor)
Matt Wilson Drums
Треклист:
1 I Should Care Cahn, Stordahl, Weston 10:55
2 The Very Thought of You Noble 9:28
3 I-Pimp Redman 1:45
4 Portrait in Black and White Buarque, Jobim 9:17
5 Tu-Inns Redman 7:18
6 Kleerwine Redman 4:12
7 Stablemates Golson 5:21
8 Eleven Redman 8:58
 
Лог создания рипа
Exact Audio Copy V0.99 prebeta 4 from 23. January 2008
EAC extraction logfile from 9. October 2010, 22:06
Dewey Redman / In London
Used drive : HL-DT-ST BD-RE GGW-H10N Adapter: 1 ID: 0
Read mode : Secure
Utilize accurate stream : Yes
Defeat audio cache : No
Make use of C2 pointers : No
Read offset correction : 667
Overread into Lead-In and Lead-Out : No
Fill up missing offset samples with silence : Yes
Delete leading and trailing silent blocks : No
Null samples used in CRC calculations : No
Used interface : Installed external ASPI interface
Gap handling : Not detected, thus appended to previous track
Used output format : Internal WAV Routines
Sample format : 44.100 Hz; 16 Bit; Stereo
TOC of the extracted CD
Track | Start | Length | Start sector | End sector
---------------------------------------------------------
1 | 0:00.00 | 10:56.19 | 0 | 49218
2 | 10:56.19 | 9:29.35 | 49219 | 91928
3 | 20:25.54 | 10:45.28 | 91929 | 140331
4 | 31:11.07 | 9:17.67 | 140332 | 182173
5 | 40:28.74 | 7:20.63 | 182174 | 215236
6 | 47:49.62 | 4:14.03 | 215237 | 234289
7 | 52:03.65 | 5:23.08 | 234290 | 258522
8 | 57:26.73 | 8:59.35 | 258523 | 298982
Track 1
Filename C:\RIPFLAC\01 I Should Care.wav
Peak level 88.3 %
Track quality 100.0 %
Copy CRC 94E8C9B2
Accurately ripped (confidence 1) [92E2D2F7]
Copy OK
Track 2
Filename C:\RIPFLAC\02 The Very Thought Of You.wav
Peak level 98.7 %
Track quality 99.9 %
Copy CRC 60556E0E
Accurately ripped (confidence 1) [79928DF3]
Copy OK
Track 3
Filename C:\RIPFLAC\03 I-Pimp.wav
Peak level 98.6 %
Track quality 100.0 %
Copy CRC DA16B517
Accurately ripped (confidence 1) [22629D8F]
Copy OK
Track 4
Filename C:\RIPFLAC\04 Portrait In Black And White.wav
Peak level 97.6 %
Track quality 100.0 %
Copy CRC E332D7F8
Accurately ripped (confidence 1) [74E973CB]
Copy OK
Track 5
Filename C:\RIPFLAC\05 Tu-Inns.wav
Peak level 97.4 %
Track quality 100.0 %
Copy CRC 8C27D77B
Accurately ripped (confidence 1) [DD777831]
Copy OK
Track 6
Filename C:\RIPFLAC\06 Kleerwine.wav
Peak level 91.8 %
Track quality 99.9 %
Copy CRC B54F9B26
Accurately ripped (confidence 1) [A57CF70C]
Copy OK
Track 7
Filename C:\RIPFLAC\07 Stablemates.wav
Peak level 93.9 %
Track quality 99.9 %
Copy CRC 2628E87F
Accurately ripped (confidence 1) [3A5385E1]
Copy OK
Track 8
Filename C:\RIPFLAC\08 Eleven.wav
Peak level 99.0 %
Track quality 100.0 %
Copy CRC A6F89EE8
Accurately ripped (confidence 1) [483F90FF]
Copy OK
All tracks accurately ripped
No errors occurred
End of status report
 
Содержание индексной карты (.CUE)
REM DISCID 6D0F9208
REM COMMENT "ExactAudioCopy v0.99pb4"
PERFORMER "Dewey Redman"
TITLE "In London"
FILE "01 I Should Care.wav" WAVE
TRACK 01 AUDIO
TITLE "I Should Care"
PERFORMER "Dewey Redman"
INDEX 01 00:00:00
FILE "02 The Very Thought Of You.wav" WAVE
TRACK 02 AUDIO
TITLE "The Very Thought Of You"
PERFORMER "Dewey Redman"
INDEX 01 00:00:00
FILE "03 I-Pimp.wav" WAVE
TRACK 03 AUDIO
TITLE "I-Pimp"
PERFORMER "Dewey Redman"
INDEX 01 00:00:00
FILE "04 Portrait In Black And White.wav" WAVE
TRACK 04 AUDIO
TITLE "Portrait In Black And White"
PERFORMER "Dewey Redman"
INDEX 01 00:00:00
FILE "05 Tu-Inns.wav" WAVE
TRACK 05 AUDIO
TITLE "Tu-Inns"
PERFORMER "Dewey Redman"
INDEX 01 00:00:00
FILE "06 Kleerwine.wav" WAVE
TRACK 06 AUDIO
TITLE "Kleerwine"
PERFORMER "Dewey Redman"
INDEX 01 00:00:00
FILE "07 Stablemates.wav" WAVE
TRACK 07 AUDIO
TITLE "Stablemates"
PERFORMER "Dewey Redman"
INDEX 01 00:00:00
FILE "08 Eleven.wav" WAVE
TRACK 08 AUDIO
TITLE "Eleven"
PERFORMER "Dewey Redman"
INDEX 01 00:00:00

AMG info
другие релизы
Any questions -> support@pro-jazz.com. По всем вопросам пишите -> support@pro-jazz.com
20:24
215
Нет комментариев. Ваш будет первым!