Вы используете незарегистрированную версию компонента "Вкладки"!

Поиск

(Free-Jazz) David S. Ware Quartet - Great Bliss Volume 1 - 1990 {Silkheart}, FLAC (tracks+.cue), lossless

Треклист:
David S. Ware Quartet - Great Bliss Volume 1
Жанр: Free-Jazz
Год выпуска диска: 1990
Производитель диска: Sweden (Silkheart)
Аудио кодек: FLAC
Тип рипа: tracks+.cue
Битрейт аудио: lossless
Продолжительность: 1:13:28
Трэклист:
01 - Forward Motion (12:12)
02 - Angular (5:20)
03 - Bliss Theme (9:02)
04 - Cadenza (11:49)
05 - Sound Bound (12:09)
06 - Mind Time (4:29)
07 - Saxelloscape One (4:33)
08 - Thirds (13:56)
Доп. информация: David S. Ware flute, tenor sax, saxello, stritch
Matthew Shipp piano
William Parker bass
Marc Edwards drums, tympany, chimes, bells, percussion
 
EAC Log
Exact Audio Copy V0.99 prebeta 5 from 4. May 2009
EAC extraction logfile from 26. January 2010, 20:43
David S. Ware Quartet / Great Bliss, Volume 1
Used drive : PLEXTOR CD-R PREMIUM2 Adapter: 3 ID: 0
Read mode : Secure
Utilize accurate stream : Yes
Defeat audio cache : Yes
Make use of C2 pointers : No
Read offset correction : 30
Overread into Lead-In and Lead-Out : Yes
Fill up missing offset samples with silence : Yes
Delete leading and trailing silent blocks : No
Null samples used in CRC calculations : Yes
Used interface : Native Win32 interface for Win NT & 2000
Gap handling : Appended to previous track
Used output format : User Defined Encoder
Selected bitrate : 128 kBit/s
Quality : High
Add ID3 tag : No
Command line compressor : D:\Programme\EAC099\Flac\flac.exe
Additional command line options : -5 -V -T "ARTIST=%a" -T "TITLE=%t" -T "ALBUM=%g" -T "DATE=%y" -T "TRACKNUMBER=%n" -T "TOTALTRACKS=%x" -T "GENRE=%m" -T "ALBUM ARTIST=%v" -T "ALBUMARTIST=%v" -T "COMMENT=EAC V0.99 prebeta 5, Secure Mode, Test & Copy, Accurat
TOC of the extracted CD
Track | Start | Length | Start sector | End sector
---------------------------------------------------------
1 | 0:00.32 | 12:11.63 | 32 | 54919
2 | 12:12.20 | 5:19.55 | 54920 | 78899
3 | 17:32.00 | 9:02.22 | 78900 | 119571
4 | 26:34.22 | 11:48.53 | 119572 | 172724
5 | 38:23.00 | 12:08.65 | 172725 | 227389
6 | 50:31.65 | 4:28.55 | 227390 | 247544
7 | 55:00.45 | 4:33.17 | 247545 | 268036
8 | 59:33.62 | 13:55.43 | 268037 | 330704
Track 1
Filename E:\Share\Jazz\U-Z\David S. Ware Quartet - Great Bliss Volume 1 (1990) [FLAC] {SILKHEART SHCD 127}\01 - Forward Motion.wav
Pre-gap length 0:00:02.42
Peak level 89.0 %
Track quality 100.0 %
Test CRC 6A71881B
Copy CRC 6A71881B
Cannot be verified as accurate (confidence 2) [00ADC65B], AccurateRip returned [948548F3]
Copy OK
Track 2
Filename E:\Share\Jazz\U-Z\David S. Ware Quartet - Great Bliss Volume 1 (1990) [FLAC] {SILKHEART SHCD 127}\02 - Angular.wav
Pre-gap length 0:00:00.60
Peak level 92.1 %
Track quality 100.0 %
Test CRC CDE9D6C0
Copy CRC CDE9D6C0
Cannot be verified as accurate (confidence 2) [FDBA6003], AccurateRip returned [29DFE9B8]
Copy OK
Track 3
Filename E:\Share\Jazz\U-Z\David S. Ware Quartet - Great Bliss Volume 1 (1990) [FLAC] {SILKHEART SHCD 127}\03 - Bliss Theme.wav
Pre-gap length 0:00:02.60
Peak level 74.9 %
Track quality 100.0 %
Test CRC 61914ACD
Copy CRC 61914ACD
Cannot be verified as accurate (confidence 2) [CE2E5C5A], AccurateRip returned [DA995832]
Copy OK
Track 4
Filename E:\Share\Jazz\U-Z\David S. Ware Quartet - Great Bliss Volume 1 (1990) [FLAC] {SILKHEART SHCD 127}\04 - Cadenza.wav
Pre-gap length 0:00:01.76
Peak level 73.8 %
Track quality 100.0 %
Test CRC FE61518E
Copy CRC FE61518E
Cannot be verified as accurate (confidence 2) [2066CF1E], AccurateRip returned [3FBB5F60]
Copy OK
Track 5
Filename E:\Share\Jazz\U-Z\David S. Ware Quartet - Great Bliss Volume 1 (1990) [FLAC] {SILKHEART SHCD 127}\05 - Sound Bound.wav
Pre-gap length 0:00:01.40
Peak level 83.0 %
Track quality 99.9 %
Test CRC BA27EFC5
Copy CRC BA27EFC5
Cannot be verified as accurate (confidence 2) [6E45D093], AccurateRip returned [A72FD9DE]
Copy OK
Track 6
Filename E:\Share\Jazz\U-Z\David S. Ware Quartet - Great Bliss Volume 1 (1990) [FLAC] {SILKHEART SHCD 127}\06 - Mind Time.wav
Pre-gap length 0:00:01.20
Peak level 68.9 %
Track quality 100.0 %
Test CRC 9777DA88
Copy CRC 9777DA88
Cannot be verified as accurate (confidence 2) [F6D26808], AccurateRip returned [2392D76D]
Copy OK
Track 7
Filename E:\Share\Jazz\U-Z\David S. Ware Quartet - Great Bliss Volume 1 (1990) [FLAC] {SILKHEART SHCD 127}\07 - Saxelloscape.wav
Pre-gap length 0:00:01.66
Peak level 50.8 %
Track quality 100.0 %
Test CRC 697092F5
Copy CRC 697092F5
Cannot be verified as accurate (confidence 2) [C82D00D6], AccurateRip returned [50AB10EB]
Copy OK
Track 8
Filename E:\Share\Jazz\U-Z\David S. Ware Quartet - Great Bliss Volume 1 (1990) [FLAC] {SILKHEART SHCD 127}\08 - Thirds.wav
Pre-gap length 0:00:01.16
Peak level 87.4 %
Track quality 99.8 %
Test CRC 5455BF2D
Copy CRC 5455BF2D
Cannot be verified as accurate (confidence 2) [79162057], AccurateRip returned [3CE7E9E9]
Copy OK
No tracks could be verified as accurate
You may have a different pressing from the one(s) in the database
No errors occurred
End of status report
 
cue
REM GENRE "Free Jazz"
REM DATE 1990
REM DISCID 5E113908
REM COMMENT "ExactAudioCopy v0.99pb5"
PERFORMER "David S. Ware Quartet"
TITLE "Great Bliss, Volume 1"
FILE "01 - Forward Motion.flac" WAVE
TRACK 01 AUDIO
TITLE "Forward Motion"
PERFORMER "David S. Ware Quartet"
PREGAP 00:00:32
INDEX 01 00:00:00
TRACK 02 AUDIO
TITLE "Angular"
PERFORMER "David S. Ware Quartet"
INDEX 00 12:11:18
FILE "02 - Angular.flac" WAVE
INDEX 01 00:00:00
TRACK 03 AUDIO
TITLE "Bliss Theme"
PERFORMER "David S. Ware Quartet"
INDEX 00 05:17:10
FILE "03 - Bliss Theme.flac" WAVE
INDEX 01 00:00:00
TRACK 04 AUDIO
TITLE "Cadenza"
PERFORMER "David S. Ware Quartet"
INDEX 00 09:00:40
FILE "04 - Cadenza.flac" WAVE
INDEX 01 00:00:00
TRACK 05 AUDIO
TITLE "Sound Bound"
PERFORMER "David S. Ware Quartet"
INDEX 00 11:47:23
FILE "05 - Sound Bound.flac" WAVE
INDEX 01 00:00:00
TRACK 06 AUDIO
TITLE "Mind Time"
PERFORMER "David S. Ware Quartet"
INDEX 00 12:07:50
FILE "06 - Mind Time.flac" WAVE
INDEX 01 00:00:00
TRACK 07 AUDIO
TITLE "Saxelloscape"
PERFORMER "David S. Ware Quartet"
INDEX 00 04:27:05
FILE "07 - Saxelloscape.flac" WAVE
INDEX 01 00:00:00
TRACK 08 AUDIO
TITLE "Thirds"
PERFORMER "David S. Ware Quartet"
INDEX 00 04:32:05
FILE "08 - Thirds.flac" WAVE
INDEX 01 00:00:00
Any questions -> support@pro-jazz.com. По всем вопросам пишите -> support@pro-jazz.com
18:42
168
Нет комментариев. Ваш будет первым!