Вы используете незарегистрированную версию компонента "Вкладки"!

Поиск

(Free Jazz) David S. Ware Quartet - Freedom Suite - 2002, FLAC (tracks+.cue), lossless

(Free Jazz) David S. Ware Quartet - Freedom Suite - 2002, FLAC (tracks+.cue), lossless
Треклист:
David S. Ware Quartet - Freedom Suite
Жанр: Free Jazz
Год выпуска диска: 2002
Производитель диска: США
Аудио кодек: FLAC
Тип рипа: tracks+.cue
Битрейт аудио: lossless
Продолжительность: 39:24
Трэклист:
01. Freedom Suite 1 (7:05)
02. Freedom Suite 2 (11:37)
03. Freedom Suite 3 (8:12)
04. Freedom Suite 4 (12:30)
Доп. информация:
 
отчёт EAC
EAC extraction logfile from 29. March 2006, 9:55 for CD
David S. Ware Quartet / The Freedom Suite
Used drive : HL-DT-STCD-RW GCE-8481B Adapter: 1 ID: 0
Read mode : Secure with NO C2, accurate stream, disable cache
Read offset correction : 6
Overread into Lead-In and Lead-Out : No
Used output format : C:\WINDOWS\flac\flac.exe (User Defined Encoder)
128 kBit/s
Additional command line options : -5 -V -T "ARTIST=%a" -T "TITLE=%t" -T "ALBUM=%g" -T "DATE=%y" -T "TRACKNUMBER=%n" -T "GENRE=%m" -T "COMMENT=EAC Flac 1.1.2 -7" %s
Other options :
Fill up missing offset samples with silence : Yes
Delete leading and trailing silent blocks : No
Native Win32 interface for Win NT & 2000
Track 1
Filename C:\+uploads\David S. Ware Quartet - Freedom Suite\01 - Freedom Suite 1.wav
Pre-gap length 0:00:02.00
Peak level 92.2 %
Track quality 100.0 %
Test CRC 12EA1384
Copy CRC 12EA1384
Copy OK
Track 2
Filename C:\+uploads\David S. Ware Quartet - Freedom Suite\02 - Freedom Suite 2.wav
Pre-gap length 0:00:02.00
Peak level 98.4 %
Track quality 100.0 %
Test CRC 269A0C4D
Copy CRC 269A0C4D
Copy OK
Track 3
Filename C:\+uploads\David S. Ware Quartet - Freedom Suite\03 - Freedom Suite 3.wav
Pre-gap length 0:00:02.00
Peak level 98.0 %
Track quality 99.9 %
Test CRC 9276CE3F
Copy CRC 9276CE3F
Copy OK
Track 4
Filename C:\+uploads\David S. Ware Quartet - Freedom Suite\04 - Freedom Suite 4.wav
Pre-gap length 0:00:02.00
Peak level 99.9 %
Track quality 99.9 %
Test CRC 196B7531
Copy CRC 196B7531
Copy OK
No errors occured
End of status report
 
спектр
Any questions -> support@pro-jazz.com. По всем вопросам пишите -> support@pro-jazz.com
18:24
127
Нет комментариев. Ваш будет первым!