Вы используете незарегистрированную версию компонента "Вкладки"!

Поиск

(Free Jazz) David Murray : Shakill`s Warrior(1991)/David Murray Big Band conducted by Lawrence "Butch" Morris(1991) , FLAC (tracks+.cue) , lossless

(Free Jazz) David Murray : Shakill`s Warrior(1991)/David Murray Big Band conducted by Lawrence "Butch" Morris(1991) , FLAC (tracks+.cue) , lossless
Треклист:
David Murray : Shakill`s Warrior(1991)/David Murray Big Band conducted by Lawrence "Butch" Morris(1991)
Жанр: Free Jazz
Аудио кодек: FLAC
Тип рипа: tracks+.cue
Битрейт аудио: lossless
.
.
.
.
.
.

Трэклист и прочее :
 
Shakill's Warrior (01:13:01) : DIW(Japan)-DIW 850-(1991)

Трэклист:
01. Blues For Savannah (7:27)
02. Song From The Old Country (7:02)
03. High Priest (12:00)
04. In The Spirit (9:50)
05. Shakill's Warrior (8:38)
06. At The Cafe Central (10:53)
07. Black February (8:54)
08. Milano Strut (8:17)
 
Лог EAC
Exact Audio Copy V0.99 prebeta 5 from 4. May 2009
Отчёт EAC об извлечении, выполненном 13. мая 2010, 12:52
David Murray / Shakill's Warrior
Дисковод: SONY DVD RW DRX-S70U Adapter: 1 ID: 0
Режим чтения : Достоверность
Использование точного потока : Да
Отключение кэша аудио : Да
Использование указателей C2 : Нет
Коррекция смещения при чтении : 48
Способность читать области Lead-in и Lead-out : Нет
Заполнение пропущенных сэмплов тишиной : Да
Удаление блоков с тишиной в начале и конце : Нет
При вычислениях CRC использовались нулевые сэмплы : Да
Интерфейс : Встроенный Win32-интерфейс для Win NT/2000
Обработка зазоров : Добавлено к предыдущему треку
Выходной формат : Пользовательский кодировщик
Выбранный битрейт : 768 kBit/s
Качество : Высокий
Добавление ID3-тэга : Да
Утилита сжатия : H:\Program Files\Exact Audio Copy\Flac\flac.exe
Дополнительные параметры : -6 -V -T "ARTIST=%a" -T "TITLE=%t" -T "ALBUM=%g" -T "DATE=%y" -T "TRACKNUMBER=%n" -T "GENRE=%m" -T "COMMENT=%e" %s -o %d
TOC извлечённого CD
Трек | Старт | Длительность | Начальный сектор | Конечный сектор
---------------------------------------------------------------------
1 | 0:00.00 | 7:27.12 | 0 | 33536
2 | 7:27.12 | 7:02.25 | 33537 | 65211
3 | 14:29.37 | 11:59.50 | 65212 | 119186
4 | 26:29.12 | 9:50.18 | 119187 | 163454
5 | 36:19.30 | 8:37.50 | 163455 | 202279
6 | 44:57.05 | 10:52.45 | 202280 | 251224
7 | 55:49.50 | 8:54.25 | 251225 | 291299
8 | 64:44.00 | 8:17.00 | 291300 | 328574
Трек 1
Имя файла E:\David Murray\shakill`s warrior\[01]Blues For Savannah-David Murray.wav
Длина предзазора 0:00:02.00
Пиковый уровень 100.0 %
Качество трека 100.0 %
CRC теста 38A8FE97
CRC копии 38A8FE97
Точность не определена (достоверность 2) [4EC3DBF0], AccurateRip вернул [C62C6BB3]
Копирование... OK
Трек 2
Имя файла E:\David Murray\shakill`s warrior\[02]Song From The Old Country-David Murray.wav
Длина предзазора 0:00:00.49
Пиковый уровень 100.0 %
Качество трека 100.0 %
CRC теста 849DF3D8
CRC копии 849DF3D8
Точность не определена (достоверность 2) [281DF138], AccurateRip вернул [140DAA99]
Копирование... OK
Трек 3
Имя файла E:\David Murray\shakill`s warrior\[03]High Priest-David Murray.wav
Длина предзазора 0:00:00.49
Пиковый уровень 99.2 %
Качество трека 100.0 %
CRC теста 6E38EF07
CRC копии 6E38EF07
Точность не определена (достоверность 2) [E57F9AD2], AccurateRip вернул [6BE79728]
Копирование... OK
Трек 4
Имя файла E:\David Murray\shakill`s warrior\[04]In The Spirit-David Murray.wav
Длина предзазора 0:00:00.49
Пиковый уровень 99.2 %
Качество трека 100.0 %
CRC теста F34E447E
CRC копии F34E447E
Точность не определена (достоверность 2) [184EEE36], AccurateRip вернул [09A04668]
Копирование... OK
Трек 5
Имя файла E:\David Murray\shakill`s warrior\[05]Shakill's Warrior-David Murray.wav
Длина предзазора 0:00:00.50
Пиковый уровень 100.0 %
Качество трека 99.9 %
CRC теста 5094EF8D
CRC копии 5094EF8D
Точность не определена (достоверность 2) [7B615502], AccurateRip вернул [D48275BC]
Копирование... OK
Трек 6
Имя файла E:\David Murray\shakill`s warrior\[06]At The Cafe Central-David Murray.wav
Длина предзазора 0:00:00.50
Пиковый уровень 99.3 %
Качество трека 100.0 %
CRC теста E82D5B37
CRC копии E82D5B37
Трек не обнаружен в базе AccurateRip
Копирование... OK
Трек 7
Имя файла E:\David Murray\shakill`s warrior\[07]Black February-David Murray.wav
Длина предзазора 0:00:00.50
Пиковый уровень 99.2 %
Качество трека 100.0 %
CRC теста 418105AE
CRC копии 418105AE
Точность не определена (достоверность 2) [3E72BA0A], AccurateRip вернул [F5D1C4A3]
Копирование... OK
Трек 8
Имя файла E:\David Murray\shakill`s warrior\[08]Milano Strut-David Murray.wav
Длина предзазора 0:00:00.50
Пиковый уровень 100.0 %
Качество трека 100.0 %
CRC теста A68B045C
CRC копии A68B045C
Точность не определена (достоверность 2) [81003821], AccurateRip вернул [980EE08F]
Копирование... OK
7 трек(и) не удалось проверить на точность
1 трек(и) не содержатся в базе AccurateRip
Ни один трек не прошёл проверки на точность
В вашей базе может быть иной вариант штамповки диска
Ошибок не произошло
Конец отчёта
 
Лог Audiochecker
AUDIOCHECKER v2.0 beta (build 457) - by Dester - opdester@freemail.hu
~~~~~~~~~~~~~~~~~~~~~~~~~~~~~~~~~~
-=== DO NOT EDIT THIS FILE! ===-
Путь: ...\shakill`s warrior
1 -=- [01]Blues For Savannah-David Murray.flac -=- CDDA (100%)
2 -=- [02]Song From The Old Country-David Murray.flac -=- CDDA (100%)
3 -=- [03]High Priest-David Murray.flac -=- CDDA (100%)
4 -=- [04]In The Spirit-David Murray.flac -=- CDDA (100%)
5 -=- [05]Shakill's Warrior-David Murray.flac -=- CDDA (100%)
6 -=- [06]At The Cafe Central-David Murray.flac -=- CDDA (100%)
7 -=- [07]Black February-David Murray.flac -=- CDDA (100%)
8 -=- [08]Milano Strut-David Murray.flac -=- CDDA (100%)
Сводка 100,00% CDDA
80730564
 
*CUE
REM GENRE Jazz
REM DATE 1991
REM DISCID 7E111D08
REM COMMENT "ExactAudioCopy v0.99pb5"
PERFORMER "David Murray"
TITLE "Shakill's Warrior"
FILE "[01]Blues For Savannah-David Murray.wav" WAVE
TRACK 01 AUDIO
TITLE "Blues For Savannah"
PERFORMER "David Murray"
INDEX 01 00:00:00
TRACK 02 AUDIO
TITLE "Song From The Old Country"
PERFORMER "David Murray"
INDEX 00 07:26:50
FILE "[02]Song From The Old Country-David Murray.wav" WAVE
INDEX 01 00:00:00
TRACK 03 AUDIO
TITLE "High Priest"
PERFORMER "David Murray"
INDEX 00 07:01:63
FILE "[03]High Priest-David Murray.wav" WAVE
INDEX 01 00:00:00
TRACK 04 AUDIO
TITLE "In The Spirit"
PERFORMER "David Murray"
INDEX 00 11:59:13
FILE "[04]In The Spirit-David Murray.wav" WAVE
INDEX 01 00:00:00
TRACK 05 AUDIO
TITLE "Shakill's Warrior"
PERFORMER "David Murray"
INDEX 00 09:49:55
FILE "[05]Shakill's Warrior-David Murray.wav" WAVE
INDEX 01 00:00:00
TRACK 06 AUDIO
TITLE "At The Cafe Central"
PERFORMER "David Murray"
INDEX 00 08:37:12
FILE "[06]At The Cafe Central-David Murray.wav" WAVE
INDEX 01 00:00:00
TRACK 07 AUDIO
TITLE "Black February"
PERFORMER "David Murray"
INDEX 00 10:52:07
FILE "[07]Black February-David Murray.wav" WAVE
INDEX 01 00:00:00
TRACK 08 AUDIO
TITLE "Milano Strut"
PERFORMER "David Murray"
INDEX 00 08:53:62
FILE "[08]Milano Strut-David Murray.wav" WAVE
INDEX 01 00:00:00
 
David Murray Big Band conducted by Lawrence 'Butch' Morris (01:11:20) : DIW/Columbia(USA)-CK 48964-(1992)
состав :
David Murray : tenor sax , bass clarinet
Hugh Ragin , Graham Haynes , Rasul Siddik , James Zollar : trumpets
Craig Harris , Frank Lacy , Al Patterson :trombones
Vincent Chancey : french horn
Bob Stewart : tuba
Kahlil Henry : flute , piccolo
John Purcell : alto sax
James Spaulding : alto sax , flute
Patience Higgins : tenor , soprano sax
Don Byron : baritone sax , clarinet
Sonelius Smith : piano
Fred Hopkins : bass
Tani Tabbal : drums
Joel A. Brandon , The "Master Whistler" : whistle on "Paul Gonsalves"
Brother G`ra : poetry on "Calling Steve McCall"
Andy Bey : vocals on "Let The Music Take You"
Lawrence "Butch" Morris : conductor
Трэклист:
01. Paul Gonsalves (17:38)
02. Lester (9:57)
03. Ben (10:10)
04. Calling Steve McCall (6:18)
05. Lovejoy (6:12)
06. Istanbul (9:25)
07. David's Tune (7:51)
08. Let The Music Take You (3:50)
 
Лог EAC
Exact Audio Copy V0.99 prebeta 5 from 4. May 2009
Отчёт EAC об извлечении, выполненном 13. мая 2010, 14:29
David Murray Big Band / David Murray Big Band conducted by Lawrence "Butch" Morris
Дисковод: SONY DVD RW DRX-S70U Adapter: 1 ID: 0
Режим чтения : Достоверность
Использование точного потока : Да
Отключение кэша аудио : Да
Использование указателей C2 : Нет
Коррекция смещения при чтении : 48
Способность читать области Lead-in и Lead-out : Нет
Заполнение пропущенных сэмплов тишиной : Да
Удаление блоков с тишиной в начале и конце : Нет
При вычислениях CRC использовались нулевые сэмплы : Да
Интерфейс : Встроенный Win32-интерфейс для Win NT/2000
Обработка зазоров : Добавлено к предыдущему треку
Выходной формат : Пользовательский кодировщик
Выбранный битрейт : 768 kBit/s
Качество : Высокий
Добавление ID3-тэга : Да
Утилита сжатия : H:\Program Files\Exact Audio Copy\Flac\flac.exe
Дополнительные параметры : -6 -V -T "ARTIST=%a" -T "TITLE=%t" -T "ALBUM=%g" -T "DATE=%y" -T "TRACKNUMBER=%n" -T "GENRE=%m" -T "COMMENT=%e" %s -o %d
TOC извлечённого CD
Трек | Старт | Длительность | Начальный сектор | Конечный сектор
---------------------------------------------------------------------
1 | 0:00.00 | 17:37.50 | 0 | 79324
2 | 17:37.50 | 9:56.50 | 79325 | 124074
3 | 27:34.25 | 10:10.00 | 124075 | 169824
4 | 37:44.25 | 6:17.62 | 169825 | 198161
5 | 44:02.12 | 6:12.13 | 198162 | 226074
6 | 50:14.25 | 9:24.62 | 226075 | 268436
7 | 59:39.12 | 7:51.13 | 268437 | 303774
8 | 67:30.25 | 3:49.50 | 303775 | 320999
Трек 1
Имя файла E:\David Murray\lawrense butch morris\[01]Paul Gonsalves-David Murray Big Band.wav
Длина предзазора 0:00:02.00
Пиковый уровень 97.0 %
Качество трека 100.0 %
CRC теста D0B62C9A
CRC копии D0B62C9A
Точное извлечение (достоверность 4) [9B2543A0]
Копирование... OK
Трек 2
Имя файла E:\David Murray\lawrense butch morris\[02]Lester-David Murray Big Band.wav
Длина предзазора 0:00:00.33
Пиковый уровень 85.6 %
Качество трека 100.0 %
CRC теста 2B5C3678
CRC копии 2B5C3678
Точное извлечение (достоверность 4) [6AEF3FCD]
Копирование... OK
Трек 3
Имя файла E:\David Murray\lawrense butch morris\[03]Ben-David Murray Big Band.wav
Длина предзазора 0:00:00.33
Пиковый уровень 97.0 %
Качество трека 99.9 %
CRC теста 67B503DB
CRC копии 67B503DB
Точное извлечение (достоверность 4) [6C75E5F8]
Копирование... OK
Трек 4
Имя файла E:\David Murray\lawrense butch morris\[04]Calling Steve McCall-David Murray Big Band.wav
Длина предзазора 0:00:00.33
Пиковый уровень 93.2 %
Качество трека 100.0 %
CRC теста 0AFE44EB
CRC копии 0AFE44EB
Точное извлечение (достоверность 4) [B018D7C8]
Копирование... OK
Трек 5
Имя файла E:\David Murray\lawrense butch morris\[05]Lovejoy-David Murray Big Band.wav
Длина предзазора 0:00:00.33
Пиковый уровень 97.0 %
Качество трека 100.0 %
CRC теста 4A8519B7
CRC копии 4A8519B7
Точное извлечение (достоверность 4) [FD9E9E29]
Копирование... OK
Трек 6
Имя файла E:\David Murray\lawrense butch morris\[06]Istanbul-David Murray Big Band.wav
Длина предзазора 0:00:00.33
Пиковый уровень 97.0 %
Качество трека 99.9 %
CRC теста F672271A
CRC копии F672271A
Точное извлечение (достоверность 4) [AC824E9D]
Копирование... OK
Трек 7
Имя файла E:\David Murray\lawrense butch morris\[07]David's Tune-David Murray Big Band.wav
Длина предзазора 0:00:00.33
Пиковый уровень 97.0 %
Качество трека 99.9 %
CRC теста 692BF573
CRC копии 692BF573
Точное извлечение (достоверность 4) [234894B2]
Копирование... OK
Трек 8
Имя файла E:\David Murray\lawrense butch morris\[08]Let The Music Take You-David Murray Big Band.wav
Длина предзазора 0:00:00.33
Пиковый уровень 97.0 %
Качество трека 100.0 %
CRC теста A697658E
CRC копии A697658E
Точное извлечение (достоверность 4) [45DCA572]
Копирование... OK
Все треки извлечены точно
Ошибок не произошло
Конец отчёта
 
Лог Audiochecker
AUDIOCHECKER v2.0 beta (build 457) - by Dester - opdester@freemail.hu
~~~~~~~~~~~~~~~~~~~~~~~~~~~~~~~~~~
-=== НЕ РЕДАКТИРУЙТЕ ЭТОТ ФАЙЛ! ===-
Путь: ...\lawrense butch morris
1 -=- [01]Paul Gonsalves-David Murray Big Band.flac -=- CDDA (100%)
2 -=- [02]Lester-David Murray Big Band.flac -=- CDDA (100%)
3 -=- [03]Ben-David Murray Big Band.flac -=- CDDA (100%)
4 -=- [04]Calling Steve McCall-David Murray Big Band.flac -=- CDDA (100%)
5 -=- [05]Lovejoy-David Murray Big Band.flac -=- CDDA (100%)
6 -=- [06]Istanbul-David Murray Big Band.flac -=- CDDA (100%)
7 -=- [07]David's Tune-David Murray Big Band.flac -=- CDDA (100%)
8 -=- [08]Let The Music Take You-David Murray Big Band.flac -=- CDDA (99%)
Сводка 99,88% CDDA
26050356
 
*CUE
REM GENRE Jazz
REM DATE 1991
REM DISCID 6910B808
REM COMMENT "ExactAudioCopy v0.99pb5"
PERFORMER "David Murray Big Band"
TITLE "David Murray Big Band conducted by Lawrence 'Butch' Morris"
FILE "[01]Paul Gonsalves-David Murray Big Band.wav" WAVE
TRACK 01 AUDIO
TITLE "Paul Gonsalves"
PERFORMER "David Murray Big Band"
INDEX 01 00:00:00
TRACK 02 AUDIO
TITLE "Lester"
PERFORMER "David Murray Big Band"
INDEX 00 17:37:25
FILE "[02]Lester-David Murray Big Band.wav" WAVE
INDEX 01 00:00:00
TRACK 03 AUDIO
TITLE "Ben"
PERFORMER "David Murray Big Band"
INDEX 00 09:56:25
FILE "[03]Ben-David Murray Big Band.wav" WAVE
INDEX 01 00:00:00
TRACK 04 AUDIO
TITLE "Calling Steve McCall"
PERFORMER "David Murray Big Band"
INDEX 00 10:09:50
FILE "[04]Calling Steve McCall-David Murray Big Band.wav" WAVE
INDEX 01 00:00:00
TRACK 05 AUDIO
TITLE "Lovejoy"
PERFORMER "David Murray Big Band"
INDEX 00 06:17:37
FILE "[05]Lovejoy-David Murray Big Band.wav" WAVE
INDEX 01 00:00:00
TRACK 06 AUDIO
TITLE "Istanbul"
PERFORMER "David Murray Big Band"
INDEX 00 06:11:63
FILE "[06]Istanbul-David Murray Big Band.wav" WAVE
INDEX 01 00:00:00
TRACK 07 AUDIO
TITLE "David's Tune"
PERFORMER "David Murray Big Band"
INDEX 00 09:24:37
FILE "[07]David's Tune-David Murray Big Band.wav" WAVE
INDEX 01 00:00:00
TRACK 08 AUDIO
TITLE "Let The Music Take You"
PERFORMER "David Murray Big Band"
INDEX 00 07:50:63
FILE "[08]Let The Music Take You-David Murray Big Band.wav" WAVE
INDEX 01 00:00:00
рипы мои с оригинальных cd из моей коллекции .
Any questions -> support@pro-jazz.com. По всем вопросам пишите -> support@pro-jazz.com
22:50
199
Нет комментариев. Ваш будет первым!