Вы используете незарегистрированную версию компонента "Вкладки"!

Поиск

(Free Jazz) Dannie Richmond Quartet - Ode To Mingus - 1979, APE (image+.cue) lossless

Треклист:
Dannie Richmond Quartet / Ode To Mingus
Жанр: Free Jazz
Год издания диска: 1979
Издатель (лейбл): Soul Note
Номер по каталогу: B000003ZWQ
Страна: USA
Аудио кодек: APE (*.ape)
Тип рипа: image+.cue
Битрейт аудио: lossless
Продолжительность: 00:41:17
Источник (релизер): типа...Darkman
Наличие сканов в содержимом раздачи: нет
Треклист:
1. Ode to Mingus 18:19
2. Olduvai Gorge 2:46
3. Love Bird 9:11
4. If You Could See Me Now 3:11
5. Drum Some, Some Drum 7:47
From Amazon.com
 
Лог создания рипа
Exact Audio Copy V0.99 prebeta 5 from 4. May 2009
EAC extraction logfile from 1. May 2011, 20:00
Dannie Richmond Quartet / Ode To Mingus
Used drive : TSSTcorpDVD+-RW TS-U633A Adapter: 0 ID: 1
Read mode : Secure
Utilize accurate stream : Yes
Defeat audio cache : Yes
Make use of C2 pointers : No
Read offset correction : 6
Overread into Lead-In and Lead-Out : No
Fill up missing offset samples with silence : Yes
Delete leading and trailing silent blocks : No
Null samples used in CRC calculations : Yes
Used interface : Native Win32 interface for Win NT & 2000
Used output format : Internal WAV Routines
Sample format : 44.100 Hz; 16 Bit; Stereo
TOC of the extracted CD
Track | Start | Length | Start sector | End sector
---------------------------------------------------------
1 | 0:00.33 | 18:19.42 | 33 | 82499
2 | 18:20.00 | 2:46.08 | 82500 | 94957
3 | 21:06.08 | 9:11.55 | 94958 | 136337
4 | 30:17.63 | 3:11.45 | 136338 | 150707
5 | 33:29.33 | 7:48.00 | 150708 | 185807
Range status and errors
Selected range
Filename C:\_Arc\BARIN99\Dannie Richmond Quartet - Ode To Mingus\Dannie Richmond Quartet - Ode To Mingus.wav
Peak level 97.9 %
Range quality 100.0 %
Copy CRC B4A61EB7
Copy OK
No errors occurred
AccurateRip summary
Track 1 not present in database
Track 2 not present in database
Track 3 not present in database
Track 4 not present in database
Track 5 not present in database
None of the tracks are present in the AccurateRip database
End of status report
 
Содержание индексной карты (.CUE)
REM GENRE Jazz
REM DATE 1979
REM DISCID 2E09AD05
REM COMMENT "ExactAudioCopy v0.99pb5"
PERFORMER "Dannie Richmond Quartet"
TITLE "Ode To Mingus"
FILE "Dannie Richmond Quartet - Ode To Mingus.wav" WAVE
TRACK 01 AUDIO
TITLE "Ode To Mingus"
PERFORMER "Dannie Richmond Quartet"
INDEX 00 00:00:00
INDEX 01 00:00:33
TRACK 02 AUDIO
TITLE "Olduval Gorge"
PERFORMER "Dannie Richmond Quartet"
INDEX 01 18:20:00
TRACK 03 AUDIO
TITLE "Love Bird"
PERFORMER "Dannie Richmond Quartet"
INDEX 01 21:06:08
TRACK 04 AUDIO
TITLE "If You Could See Me Now"
PERFORMER "Dannie Richmond Quartet"
INDEX 01 30:17:63
TRACK 05 AUDIO
TITLE "Drum Some, Some Drum"
PERFORMER "Dannie Richmond Quartet"
INDEX 01 33:29:33
Any questions -> support@pro-jazz.com. По всем вопросам пишите -> support@pro-jazz.com
12:49
357
Нет комментариев. Ваш будет первым!