Вы используете незарегистрированную версию компонента "Вкладки"!

Поиск

(Free Jazz, Contemporary Jazz, Tzadik) John Zorn - Locus Solus - 1997 (1983), FLAC (tracks+.cue), lossless

(Free Jazz, Contemporary Jazz, Tzadik) John Zorn - Locus Solus - 1997 (1983), FLAC (tracks+.cue), lossless
Треклист:
John Zorn / Locus Solus
Жанр: Free Jazz, Contemporary Jazz, Tzadik
Страна-производитель диска: U.S.A.
Год издания: 1997 (1983)
Издатель (лейбл): Tzadik
Номер по каталогу: TZ 7303
Аудиокодек: FLAC (*.flac)
Тип рипа: tracks+.cue
Битрейт аудио: lossless
Продолжительность: 1:08:52
Источник (релизер): Max Monteiro
Наличие сканов в содержимом раздачи: нет
Треклист:
01. Bass and the Treble 2:57
02. The Acquisition & Control of Fire 1:33
03. Honey-Cab 2:34
04. Switch 2:15
05. Juan Talks It Out of His System 2:12
06. The Wish 2:03
07. A Case Arose 2:00
08. The Elf 1:41
09. Getting Curly 1:52
10. Don’t Switch 1:50
11. Smooth Cheeks of a Big Ego 1:51
12. Add Water 2:15
13. Cold 1:32
14. Friar T. 0:59
15. Too Me 2:17
16. You Rang? 1:17
17. Self-Satisfied 1:22
18. Agora 1:10
19. Dot Dot, Dot 1:14
20. Moi non plus 1:43
21. Liver 1:49
22. « The Footman’s Eyes Get Crossed » 1:05
23. Heike Cipher Mystery 1:48
24. Jedi Mind Trick 1:06
25. Mysterious Island 2:12
James Bond Trilogy
26. You Only Live Twice, Mr. Bond 1:59
27. When Arrows Meet 1:39
28. Never Say Never Again 1:46
29. Sign of the Four 2:14
30. Locus Solus (Parts 1 & 2) 2:11
31. Where Are My Victims? 2:07
32. Disco Volante 2:06
33. Kaiser in Borneo 1:49
34. The Saint 1:40
35. The Violent Death of Dutch Schultz 1:23
36. Thunderball 1:44
37. White Zombie 1:30
38. The Slaves of Vesuvius 2:06
 
Лог создания рипа
Exact Audio Copy V1.0 beta 3 from 29. August 2011
EAC extraction logfile from 6. April 2013, 22:53
John Zorn / Locus Solus
Used drive : SlimtypeeNAU508 5 Adapter: 1 ID: 0
Read mode : Secure
Utilize accurate stream : Yes
Defeat audio cache : Yes
Make use of C2 pointers : No
Read offset correction : 6
Overread into Lead-In and Lead-Out : No
Fill up missing offset samples with silence : Yes
Delete leading and trailing silent blocks : No
Null samples used in CRC calculations : Yes
Used interface : Native Win32 interface for Win NT & 2000
Gap handling : Appended to previous track
Used output format : User Defined Encoder
Selected bitrate : 768 kBit/s
Quality : High
Add ID3 tag : No
Command line compressor : C:\Program Files (x86)\Exact Audio Copy\Flac\flac.exe
Additional command line options : -8 -V -T "ARTIST=%artist%" -T "TITLE=%title%" -T "ALBUM=%albumtitle%" -T "DATE=%year%" -T "TRACKNUMBER=%tracknr%" -T "GENRE=%genre%" -T "PERFORMER=%albuminterpret%" -T "COMPOSER=%composer%" %haslyrics%--tag-from-file=LYRICS="%lyricsfile%"%haslyrics% -T "ALBUMARTIST=%albumartist%" -T "DISCNUMBER=%cdnumber%" -T "TOTALDISCS=%totalcds%" -T "TOTALTRACKS=%numtracks%" -T "COMMENT=%comment%" %source% -o %dest%
TOC of the extracted CD
Track | Start | Length | Start sector | End sector
---------------------------------------------------------
1 | 0:00.00 | 2:57.32 | 0 | 13306
2 | 2:57.32 | 1:33.03 | 13307 | 20284
3 | 4:30.35 | 2:33.52 | 20285 | 31811
4 | 7:04.12 | 2:15.08 | 31812 | 41944
5 | 9:19.20 | 2:11.67 | 41945 | 51836
6 | 11:31.12 | 2:02.68 | 51837 | 61054
7 | 13:34.05 | 2:00.00 | 61055 | 70054
8 | 15:34.05 | 1:41.12 | 70055 | 77641
9 | 17:15.17 | 1:51.55 | 77642 | 86021
10 | 19:06.72 | 1:50.28 | 86022 | 94299
11 | 20:57.25 | 1:51.37 | 94300 | 102661
12 | 22:48.62 | 2:15.18 | 102662 | 112804
13 | 25:04.05 | 1:31.67 | 112805 | 119696
14 | 26:35.72 | 0:58.53 | 119697 | 124099
15 | 27:34.50 | 2:16.60 | 124100 | 134359
16 | 29:51.35 | 1:17.05 | 134360 | 140139
17 | 31:08.40 | 1:22.10 | 140140 | 146299
18 | 32:30.50 | 1:10.00 | 146300 | 151549
19 | 33:40.50 | 1:14.22 | 151550 | 157121
20 | 34:54.72 | 1:43.23 | 157122 | 164869
21 | 36:38.20 | 1:49.00 | 164870 | 173044
22 | 38:27.20 | 1:04.45 | 173045 | 177889
23 | 39:31.65 | 1:47.65 | 177890 | 185979
24 | 41:19.55 | 1:06.15 | 185980 | 190944
25 | 42:25.70 | 2:11.39 | 190945 | 200808
26 | 44:37.34 | 1:59.36 | 200809 | 209769
27 | 46:36.70 | 1:38.67 | 209770 | 217186
28 | 48:15.62 | 1:45.45 | 217187 | 225106
29 | 50:01.32 | 2:13.60 | 225107 | 235141
30 | 52:15.17 | 2:11.08 | 235142 | 244974
31 | 54:26.25 | 2:06.60 | 244975 | 254484
32 | 56:33.10 | 2:06.37 | 254485 | 263971
33 | 58:39.47 | 1:48.70 | 263972 | 272141
34 | 60:28.42 | 1:40.23 | 272142 | 279664
35 | 62:08.65 | 1:23.35 | 279665 | 285924
36 | 63:32.25 | 1:43.45 | 285925 | 293694
37 | 65:15.70 | 1:30.25 | 293695 | 300469
38 | 66:46.20 | 2:06.00 | 300470 | 309919
Track 1
Filename C:\EAC rips\01 - Bass and the Treble.wav
Pre-gap length 0:00:02.00
Peak level 95.0 %
Extraction speed 1.1 X
Track quality 100.0 %
Test CRC 14ED0D82
Copy CRC 14ED0D82
Track not present in AccurateRip database
Copy OK
Track 2
Filename C:\EAC rips\02 - The Acquisition & Control of Fire.wav
Peak level 94.8 %
Extraction speed 1.0 X
Track quality 100.0 %
Test CRC 6EFE420E
Copy CRC 6EFE420E
Track not present in AccurateRip database
Copy OK
Track 3
Filename C:\EAC rips\03 - Honey-Cab.wav
Peak level 95.6 %
Extraction speed 1.0 X
Track quality 99.9 %
Test CRC E6D4F219
Copy CRC E6D4F219
Track not present in AccurateRip database
Copy OK
Track 4
Filename C:\EAC rips\04 - Switch.wav
Peak level 94.4 %
Extraction speed 1.0 X
Track quality 99.9 %
Test CRC 938F67CC
Copy CRC 938F67CC
Track not present in AccurateRip database
Copy OK
Track 5
Filename C:\EAC rips\05 - Juan Talks It Out of His System.wav
Peak level 95.3 %
Extraction speed 1.2 X
Track quality 100.0 %
Test CRC EDBB13F6
Copy CRC EDBB13F6
Track not present in AccurateRip database
Copy OK
Track 6
Filename C:\EAC rips\06 - The Wish.wav
Peak level 95.0 %
Extraction speed 1.3 X
Track quality 100.0 %
Test CRC A71CBA18
Copy CRC A71CBA18
Track not present in AccurateRip database
Copy OK
Track 7
Filename C:\EAC rips\07 - A Case Arose.wav
Peak level 95.8 %
Extraction speed 1.3 X
Track quality 100.0 %
Test CRC 4F6F4B06
Copy CRC 4F6F4B06
Track not present in AccurateRip database
Copy OK
Track 8
Filename C:\EAC rips\08 - The Elf.wav
Peak level 96.6 %
Extraction speed 1.3 X
Track quality 100.0 %
Test CRC 051B3FDE
Copy CRC 051B3FDE
Track not present in AccurateRip database
Copy OK
Track 9
Filename C:\EAC rips\09 - Getting Curly.wav
Peak level 95.1 %
Extraction speed 1.4 X
Track quality 100.0 %
Test CRC D9452DDC
Copy CRC D9452DDC
Track not present in AccurateRip database
Copy OK
Track 10
Filename C:\EAC rips\10 - Don't Switch.wav
Peak level 95.6 %
Extraction speed 1.4 X
Track quality 100.0 %
Test CRC C19892A7
Copy CRC C19892A7
Track not present in AccurateRip database
Copy OK
Track 11
Filename C:\EAC rips\11 - Smooth Cheeks of a Big Ego.wav
Peak level 95.5 %
Extraction speed 1.4 X
Track quality 100.0 %
Test CRC 89533813
Copy CRC 89533813
Track not present in AccurateRip database
Copy OK
Track 12
Filename C:\EAC rips\12 - Add Water.wav
Peak level 95.5 %
Extraction speed 1.5 X
Track quality 100.0 %
Test CRC 1449DECE
Copy CRC 1449DECE
Track not present in AccurateRip database
Copy OK
Track 13
Filename C:\EAC rips\13 - Cold.wav
Peak level 95.0 %
Extraction speed 1.4 X
Track quality 100.0 %
Test CRC B1CBB6E1
Copy CRC B1CBB6E1
Track not present in AccurateRip database
Copy OK
Track 14
Filename C:\EAC rips\14 - Friar T..wav
Peak level 95.3 %
Extraction speed 1.2 X
Track quality 100.0 %
Test CRC B14A7220
Copy CRC B14A7220
Track not present in AccurateRip database
Copy OK
Track 15
Filename C:\EAC rips\15 - Too Me.wav
Peak level 94.9 %
Extraction speed 1.3 X
Track quality 99.9 %
Test CRC 7F1FEE03
Copy CRC 7F1FEE03
Track not present in AccurateRip database
Copy OK
Track 16
Filename C:\EAC rips\16 - You Rang_.wav
Peak level 98.8 %
Extraction speed 1.4 X
Track quality 100.0 %
Test CRC 4939B6CB
Copy CRC 4939B6CB
Track not present in AccurateRip database
Copy OK
Track 17
Filename C:\EAC rips\17 - Self-Satisfied.wav
Peak level 98.8 %
Extraction speed 1.4 X
Track quality 100.0 %
Test CRC 4320262A
Copy CRC 4320262A
Track not present in AccurateRip database
Copy OK
Track 18
Filename C:\EAC rips\18 - Agora.wav
Peak level 98.8 %
Extraction speed 1.4 X
Track quality 100.0 %
Test CRC C5FAFC9C
Copy CRC C5FAFC9C
Track not present in AccurateRip database
Copy OK
Track 19
Filename C:\EAC rips\19 - Dot Dot, Dot.wav
Peak level 98.5 %
Extraction speed 1.4 X
Track quality 100.0 %
Test CRC 728F436E
Copy CRC 728F436E
Track not present in AccurateRip database
Copy OK
Track 20
Filename C:\EAC rips\20 - Moi non plus.wav
Peak level 98.8 %
Extraction speed 1.6 X
Track quality 100.0 %
Test CRC 88DE566E
Copy CRC 88DE566E
Track not present in AccurateRip database
Copy OK
Track 21
Filename C:\EAC rips\21 - Liver.wav
Peak level 98.8 %
Extraction speed 1.7 X
Track quality 100.0 %
Test CRC CF0BA19A
Copy CRC CF0BA19A
Track not present in AccurateRip database
Copy OK
Track 22
Filename C:\EAC rips\22 - ''The Footman's Eyes Get Crossed''.wav
Peak level 98.7 %
Extraction speed 1.4 X
Track quality 100.0 %
Test CRC 18A9E4B0
Copy CRC 18A9E4B0
Track not present in AccurateRip database
Copy OK
Track 23
Filename C:\EAC rips\23 - Heike Cipher Mystery.wav
Peak level 95.7 %
Extraction speed 1.3 X
Track quality 99.9 %
Test CRC D6141CCA
Copy CRC D6141CCA
Track not present in AccurateRip database
Copy OK
Track 24
Filename C:\EAC rips\24 - Jedi Mind Trick.wav
Peak level 95.4 %
Extraction speed 1.5 X
Track quality 100.0 %
Test CRC 6F43A854
Copy CRC 6F43A854
Track not present in AccurateRip database
Copy OK
Track 25
Filename C:\EAC rips\25 - Mysterious Island.wav
Peak level 94.7 %
Extraction speed 1.9 X
Track quality 100.0 %
Test CRC 7E5CD151
Copy CRC 7E5CD151
Track not present in AccurateRip database
Copy OK
Track 26
Filename C:\EAC rips\26 - James Bond Trilogy - You Only Live Twice, Mr. Bond.wav
Peak level 95.2 %
Extraction speed 1.8 X
Track quality 100.0 %
Test CRC 8AF02590
Copy CRC 8AF02590
Track not present in AccurateRip database
Copy OK
Track 27
Filename C:\EAC rips\27 - James Bond Trilogy - When Arrows Meet.wav
Peak level 95.5 %
Extraction speed 1.8 X
Track quality 100.0 %
Test CRC 601B2F57
Copy CRC 601B2F57
Track not present in AccurateRip database
Copy OK
Track 28
Filename C:\EAC rips\28 - James Bond Trilogy - Never Say Never Again.wav
Peak level 95.3 %
Extraction speed 1.4 X
Track quality 99.8 %
Test CRC A3BD9A72
Copy CRC A3BD9A72
Track not present in AccurateRip database
Copy OK
Track 29
Filename C:\EAC rips\29 - Sign of the Four.wav
Peak level 96.6 %
Extraction speed 1.6 X
Track quality 99.9 %
Test CRC C38B5309
Copy CRC C38B5309
Track not present in AccurateRip database
Copy OK
Track 30
Filename C:\EAC rips\30 - Locus Solus (Parts 1 & 2).wav
Peak level 96.6 %
Extraction speed 1.6 X
Track quality 99.9 %
Test CRC 567C36F9
Copy CRC 567C36F9
Track not present in AccurateRip database
Copy OK
Track 31
Filename C:\EAC rips\31 - Where Are My Victims_.wav
Peak level 96.6 %
Extraction speed 1.6 X
Track quality 99.9 %
Test CRC D3424AD3
Copy CRC D3424AD3
Track not present in AccurateRip database
Copy OK
Track 32
Filename C:\EAC rips\32 - Disco Volante.wav
Peak level 95.3 %
Extraction speed 1.6 X
Track quality 99.9 %
Test CRC 6315894D
Copy CRC 6315894D
Track not present in AccurateRip database
Copy OK
Track 33
Filename C:\EAC rips\33 - Kaiser in Borneo.wav
Peak level 95.5 %
Extraction speed 2.0 X
Track quality 100.0 %
Test CRC 3E096FEF
Copy CRC 3E096FEF
Track not present in AccurateRip database
Copy OK
Track 34
Filename C:\EAC rips\34 - The Saint.wav
Peak level 95.5 %
Extraction speed 1.9 X
Track quality 100.0 %
Test CRC 09C85C2D
Copy CRC 09C85C2D
Track not present in AccurateRip database
Copy OK
Track 35
Filename C:\EAC rips\35 - The Violent Death of Dutch Schultz.wav
Peak level 95.6 %
Extraction speed 1.8 X
Track quality 100.0 %
Test CRC B0643E42
Copy CRC B0643E42
Track not present in AccurateRip database
Copy OK
Track 36
Filename C:\EAC rips\36 - Thunderball.wav
Peak level 95.5 %
Extraction speed 1.6 X
Track quality 99.8 %
Test CRC A6AD528E
Copy CRC A6AD528E
Track not present in AccurateRip database
Copy OK
Track 37
Filename C:\EAC rips\37 - White Zombie.wav
Peak level 95.9 %
Extraction speed 1.9 X
Track quality 100.0 %
Test CRC 3B1D706D
Copy CRC 3B1D706D
Track not present in AccurateRip database
Copy OK
Track 38
Filename C:\EAC rips\38 - The Slaves of Vesuvius.wav
Peak level 96.6 %
Extraction speed 1.3 X
Track quality 99.8 %
Test CRC 5F48BD0E
Copy CRC 5F48BD0E
Track not present in AccurateRip database
Copy OK
None of the tracks are present in the AccurateRip database
No errors occurred
End of status report
---- CUETools DB Plugin V2.1.4
[CTDB TOCID: OKqSq.EI.zBlWbA.XyWO2p9ZGIo-] found
Submit result: OKqSq.EI.zBlWbA.XyWO2p9ZGIo- has been confirmed
Track | CTDB Status
1 | (2/2) Accurately ripped
2 | (2/2) Accurately ripped
3 | (2/2) Accurately ripped
4 | (2/2) Accurately ripped
5 | (2/2) Accurately ripped
6 | (2/2) Accurately ripped
7 | (2/2) Accurately ripped
8 | (2/2) Accurately ripped
9 | (2/2) Accurately ripped
10 | (2/2) Accurately ripped
11 | (2/2) Accurately ripped
12 | (2/2) Accurately ripped
13 | (2/2) Accurately ripped
14 | (2/2) Accurately ripped
15 | (2/2) Accurately ripped
16 | (2/2) Accurately ripped
17 | (2/2) Accurately ripped
18 | (2/2) Accurately ripped
19 | (2/2) Accurately ripped
20 | (2/2) Accurately ripped
21 | (2/2) Accurately ripped
22 | (2/2) Accurately ripped
23 | (2/2) Accurately ripped
24 | (2/2) Accurately ripped
25 | (1/2) Accurately ripped, or (1/2) differs in 34 samples @00:11:01-00:11:02
26 | (2/2) Accurately ripped
27 | (2/2) Accurately ripped
28 | (2/2) Accurately ripped
29 | (2/2) Accurately ripped
30 | (2/2) Accurately ripped
31 | (2/2) Accurately ripped
32 | (2/2) Accurately ripped
33 | (2/2) Accurately ripped
34 | (2/2) Accurately ripped
35 | (2/2) Accurately ripped
36 | (2/2) Accurately ripped
37 | (2/2) Accurately ripped
38 | (2/2) Accurately ripped
==== Log checksum DF98BA9D5168173844CB9A95B7A5E85021052AA60D570C5862932AE756A8F685 ====
 
Содержание индексной карты (.CUE)
REM GENRE Avant-Garde
REM DATE 1983
REM DISCID 3D102426
REM COMMENT "ExactAudioCopy v1.0b3"
PERFORMER "John Zorn"
TITLE "Locus Solus"
FILE "01 - Bass and the Treble.wav" WAVE
TRACK 01 AUDIO
TITLE "Bass and the Treble"
PERFORMER "John Zorn"
INDEX 01 00:00:00
FILE "02 - The Acquisition & Control of Fire.wav" WAVE
TRACK 02 AUDIO
TITLE "The Acquisition & Control of Fire"
PERFORMER "John Zorn"
INDEX 01 00:00:00
FILE "03 - Honey-Cab.wav" WAVE
TRACK 03 AUDIO
TITLE "Honey-Cab"
PERFORMER "John Zorn"
INDEX 01 00:00:00
FILE "04 - Switch.wav" WAVE
TRACK 04 AUDIO
TITLE "Switch"
PERFORMER "John Zorn"
INDEX 01 00:00:00
FILE "05 - Juan Talks It Out of His System.wav" WAVE
TRACK 05 AUDIO
TITLE "Juan Talks It Out of His System"
PERFORMER "John Zorn"
INDEX 01 00:00:00
FILE "06 - The Wish.wav" WAVE
TRACK 06 AUDIO
TITLE "The Wish"
PERFORMER "John Zorn"
INDEX 01 00:00:00
FILE "07 - A Case Arose.wav" WAVE
TRACK 07 AUDIO
TITLE "A Case Arose"
PERFORMER "John Zorn"
INDEX 01 00:00:00
FILE "08 - The Elf.wav" WAVE
TRACK 08 AUDIO
TITLE "The Elf"
PERFORMER "John Zorn"
INDEX 01 00:00:00
FILE "09 - Getting Curly.wav" WAVE
TRACK 09 AUDIO
TITLE "Getting Curly"
PERFORMER "John Zorn"
INDEX 01 00:00:00
FILE "10 - Don't Switch.wav" WAVE
TRACK 10 AUDIO
TITLE "Don't Switch"
PERFORMER "John Zorn"
INDEX 01 00:00:00
FILE "11 - Smooth Cheeks of a Big Ego.wav" WAVE
TRACK 11 AUDIO
TITLE "Smooth Cheeks of a Big Ego"
PERFORMER "John Zorn"
INDEX 01 00:00:00
FILE "12 - Add Water.wav" WAVE
TRACK 12 AUDIO
TITLE "Add Water"
PERFORMER "John Zorn"
INDEX 01 00:00:00
FILE "13 - Cold.wav" WAVE
TRACK 13 AUDIO
TITLE "Cold"
PERFORMER "John Zorn"
INDEX 01 00:00:00
FILE "14 - Friar T..wav" WAVE
TRACK 14 AUDIO
TITLE "Friar T."
PERFORMER "John Zorn"
INDEX 01 00:00:00
FILE "15 - Too Me.wav" WAVE
TRACK 15 AUDIO
TITLE "Too Me"
PERFORMER "John Zorn"
INDEX 01 00:00:00
FILE "16 - You Rang_.wav" WAVE
TRACK 16 AUDIO
TITLE "You Rang?"
PERFORMER "John Zorn"
INDEX 01 00:00:00
FILE "17 - Self-Satisfied.wav" WAVE
TRACK 17 AUDIO
TITLE "Self-Satisfied"
PERFORMER "John Zorn"
INDEX 01 00:00:00
FILE "18 - Agora.wav" WAVE
TRACK 18 AUDIO
TITLE "Agora"
PERFORMER "John Zorn"
INDEX 01 00:00:00
FILE "19 - Dot Dot, Dot.wav" WAVE
TRACK 19 AUDIO
TITLE "Dot Dot, Dot"
PERFORMER "John Zorn"
INDEX 01 00:00:00
FILE "20 - Moi non plus.wav" WAVE
TRACK 20 AUDIO
TITLE "Moi non plus"
PERFORMER "John Zorn"
INDEX 01 00:00:00
FILE "21 - Liver.wav" WAVE
TRACK 21 AUDIO
TITLE "Liver"
PERFORMER "John Zorn"
INDEX 01 00:00:00
FILE "22 - ''The Footman's Eyes Get Crossed''.wav" WAVE
TRACK 22 AUDIO
TITLE "'The Footman's Eyes Get Crossed'"
PERFORMER "John Zorn"
INDEX 01 00:00:00
FILE "23 - Heike Cipher Mystery.wav" WAVE
TRACK 23 AUDIO
TITLE "Heike Cipher Mystery"
PERFORMER "John Zorn"
INDEX 01 00:00:00
FILE "24 - Jedi Mind Trick.wav" WAVE
TRACK 24 AUDIO
TITLE "Jedi Mind Trick"
PERFORMER "John Zorn"
INDEX 01 00:00:00
FILE "25 - Mysterious Island.wav" WAVE
TRACK 25 AUDIO
TITLE "Mysterious Island"
PERFORMER "John Zorn"
INDEX 01 00:00:00
FILE "26 - James Bond Trilogy - You Only Live Twice, Mr. Bond.wav" WAVE
TRACK 26 AUDIO
TITLE "James Bond Trilogy: You Only Live Twice, Mr. Bond"
PERFORMER "John Zorn"
INDEX 01 00:00:00
FILE "27 - James Bond Trilogy - When Arrows Meet.wav" WAVE
TRACK 27 AUDIO
TITLE "James Bond Trilogy: When Arrows Meet"
PERFORMER "John Zorn"
INDEX 01 00:00:00
FILE "28 - James Bond Trilogy - Never Say Never Again.wav" WAVE
TRACK 28 AUDIO
TITLE "James Bond Trilogy: Never Say Never Again"
PERFORMER "John Zorn"
INDEX 01 00:00:00
FILE "29 - Sign of the Four.wav" WAVE
TRACK 29 AUDIO
TITLE "Sign of the Four"
PERFORMER "John Zorn"
INDEX 01 00:00:00
FILE "30 - Locus Solus (Parts 1 & 2).wav" WAVE
TRACK 30 AUDIO
TITLE "Locus Solus (Parts 1 & 2)"
PERFORMER "John Zorn"
INDEX 01 00:00:00
FILE "31 - Where Are My Victims_.wav" WAVE
TRACK 31 AUDIO
TITLE "Where Are My Victims?"
PERFORMER "John Zorn"
INDEX 01 00:00:00
FILE "32 - Disco Volante.wav" WAVE
TRACK 32 AUDIO
TITLE "Disco Volante"
PERFORMER "John Zorn"
INDEX 01 00:00:00
FILE "33 - Kaiser in Borneo.wav" WAVE
TRACK 33 AUDIO
TITLE "Kaiser in Borneo"
PERFORMER "John Zorn"
INDEX 01 00:00:00
FILE "34 - The Saint.wav" WAVE
TRACK 34 AUDIO
TITLE "The Saint"
PERFORMER "John Zorn"
INDEX 01 00:00:00
FILE "35 - The Violent Death of Dutch Schultz.wav" WAVE
TRACK 35 AUDIO
TITLE "The Violent Death of Dutch Schultz"
PERFORMER "John Zorn"
INDEX 01 00:00:00
FILE "36 - Thunderball.wav" WAVE
TRACK 36 AUDIO
TITLE "Thunderball"
PERFORMER "John Zorn"
INDEX 01 00:00:00
FILE "37 - White Zombie.wav" WAVE
TRACK 37 AUDIO
TITLE "White Zombie"
PERFORMER "John Zorn"
INDEX 01 00:00:00
FILE "38 - The Slaves of Vesuvius.wav" WAVE
TRACK 38 AUDIO
TITLE "The Slaves of Vesuvius"
PERFORMER "John Zorn"
INDEX 01 00:00:00
 
Состав
Tracks 1-8:
Peter Blegvad – Vocals
Christian Marclay – Phonograph and Recycled Records
John Zorn – Alto and Soprano Saxophones, Clarinets, Game Calls
Recorded February 1983 at Transistor 8 Studio, New York City, NY.
Tracks 9-15:
Arto Lindsay – Guitar and Vocals
Anton Fier – Drums
John Zorn – Alto and Soprano Saxophones, Clarinets, Game Calls
Recorded April 1983 at OAO Studio, Brooklyn, NY.
Tracks 16-22 (Locus Solus live at Plugg, Giorgio Gomelsky’s Palace of Love):
Arto Lindsay – Guitar and Vocals
M. E. Miller – Drums
John Zorn – Alto and Soprano Saxophones, Clarinets, Game Calls
Recorded April 1983.
Tracks 23-30:
Wayne Horvitz – Organ, Electronics
Ikue Mori – Drums
John Zorn – Alto and Soprano Saxophones, Clarinets, Game Calls
Recorded May 1983 at OAO Studio, Brooklyn, NY.
Tracks 31-38 :
Whiz Kid – Turntable
M. E. Miller – Drums, Vocals, Linn Drums, Congas
John Zorn – Alto and Soprano Saxophones, Clarinets, Game Calls, Whistling
Recorded September 1983 at OAO Studio, Brooklyn, NYC.
Any questions -> support@pro-jazz.com. По всем вопросам пишите -> support@pro-jazz.com
10:41
176
Нет комментариев. Ваш будет первым!