Вы используете незарегистрированную версию компонента "Вкладки"!

Поиск

(Free Jazz, Contemporary Jazz) Old Dog (Louie Belogenis, Karl Berger, Michael Bisio, Warren Smith) - By Any Other Name - 2009, FLAC (image+.cue), lossless

Треклист:
Old Dog / By Any Other Name
Жанр: Free Jazz, Contemporary Jazz
Страна-производитель диска: US
Год издания: 2009
Издатель (лейбл): Porter Records
Номер по каталогу: POR 4027 CD
Аудиокодек: FLAC (*.flac)
Тип рипа: image+.cue
Битрейт аудио: lossless
Продолжительность: 58:58
Источник (релизер): cd
Наличие сканов в содержимом раздачи: нет
Треклист:
1. By Any Other Name (Trio) 6:24
2. Endless Return 4:20
3. Swa Swu Sui 5:52
4. Round And Round 6:33
5. Living Large 4:19
6. Zephyr Revisited 6:24
7. Who Are You? 4:17
8. Constellation 11:37
9. By Any Other Name (Quartet) 9:13
 
Лог создания рипа
Exact Audio Copy V1.0 beta 2 from 29. April 2011
EAC extraction logfile from 16. April 2012, 14:52
Old Dog / By Any Other Name
Used drive : Optiarc DVD RW AD-7170A Adapter: 0 ID: 0
Read mode : Secure
Utilize accurate stream : Yes
Defeat audio cache : Yes
Make use of C2 pointers : No
Read offset correction : 48
Overread into Lead-In and Lead-Out : No
Fill up missing offset samples with silence : Yes
Delete leading and trailing silent blocks : No
Null samples used in CRC calculations : Yes
Used interface : Native Win32 interface for Win NT & 2000
Used output format : User Defined Encoder
Selected bitrate : 320 kBit/s
Quality : High
Add ID3 tag : No
Command line compressor : C:\Program Files\Exact Audio Copy\Flac\flac.exe
Additional command line options : -V -8 -T "Date=%year%" -T "Genre=%genre%" %source%
TOC of the extracted CD
Track | Start | Length | Start sector | End sector
---------------------------------------------------------
1 | 0:00.00 | 6:23.44 | 0 | 28768
2 | 6:23.44 | 4:19.59 | 28769 | 48252
3 | 10:43.28 | 5:52.33 | 48253 | 74685
4 | 16:35.61 | 6:33.31 | 74686 | 104191
5 | 23:09.17 | 4:18.53 | 104192 | 123594
6 | 27:27.70 | 6:23.39 | 123595 | 152358
7 | 33:51.34 | 4:16.58 | 152359 | 171616
8 | 38:08.17 | 11:36.63 | 171617 | 223879
9 | 49:45.05 | 9:13.05 | 223880 | 265359
Range status and errors
Selected range
Filename C:\EAC\Downloads\Old Dog - By Any Other Name.wav
Peak level 99.9 %
Extraction speed 2.0 X
Range quality 99.9 %
Test CRC 82F6CB2D
Copy CRC 82F6CB2D
Copy OK
No errors occurred
AccurateRip summary
Track 1 accurately ripped (confidence 2) [198C9AF6] (AR v1)
Track 2 accurately ripped (confidence 2) [A3760286] (AR v1)
Track 3 accurately ripped (confidence 2) [A73CB34A] (AR v1)
Track 4 accurately ripped (confidence 2) [9ABD4748] (AR v1)
Track 5 accurately ripped (confidence 2) [8DAE27A9] (AR v1)
Track 6 accurately ripped (confidence 2) [00ED2025] (AR v1)
Track 7 accurately ripped (confidence 2) [53C3EE7E] (AR v1)
Track 8 accurately ripped (confidence 2) [3969FCFA] (AR v1)
Track 9 accurately ripped (confidence 2) [74FF73CA] (AR v1)
All tracks accurately ripped
End of status report
==== Log checksum 11A31A6D31FA43F534B2E4D4994938612C28CA35ED8413D6DEF47280566C1CDA ====
 
Содержание индексной карты (.CUE)
REM GENRE Jazz
REM DATE 2009
REM DISCID 8B0DD209
REM COMMENT "ExactAudioCopy v1.0b2"
PERFORMER "Old Dog"
TITLE "By Any Other Name"
FILE "Old Dog - By Any Other Name.flac" WAVE
TRACK 01 AUDIO
TITLE "By Any Other Name (trio)"
PERFORMER "Old Dog"
INDEX 01 00:00:00
TRACK 02 AUDIO
TITLE "Endless Return"
PERFORMER "Old Dog"
INDEX 01 06:23:44
TRACK 03 AUDIO
TITLE "Swa Swu Swi"
PERFORMER "Old Dog"
INDEX 01 10:43:28
TRACK 04 AUDIO
TITLE "Round and Round"
PERFORMER "Old Dog"
INDEX 01 16:35:61
TRACK 05 AUDIO
TITLE "Living Large"
PERFORMER "Old Dog"
INDEX 01 23:09:17
TRACK 06 AUDIO
TITLE "Zephyr Revisited"
PERFORMER "Old Dog"
INDEX 01 27:27:70
TRACK 07 AUDIO
TITLE "Who Are You?"
PERFORMER "Old Dog"
INDEX 01 33:51:34
TRACK 08 AUDIO
TITLE "Constellation"
PERFORMER "Old Dog"
INDEX 01 38:08:17
TRACK 09 AUDIO
TITLE "By Any Other Name (quartet)"
PERFORMER "Old Dog"
INDEX 01 49:45:05
Доп. информация: Recorded and mixed by Ted Orr at Creative Music Studio on December 29, 2007.
 
Состав
Louie Belogenis - tenor sax
Karl Berger - vibes, piano
Michael Bisio - bass
Warren Smith - drums
Any questions -> support@pro-jazz.com. По всем вопросам пишите -> support@pro-jazz.com
00:12
185
Нет комментариев. Ваш будет первым!